<?xml version="1.0" standalone="no"?>
<!DOCTYPE svg PUBLIC "-//W3C//DTD SVG 1.1//EN" "http://www.w3.org/Graphics/SVG/1.1/DTD/svg11.dtd" >
<svg xmlns="http://www.w3.org/2000/svg">
<metadata></metadata>
<defs>
<font id="signikalight" horiz-adv-x="1085" >
<font-face units-per-em="2048" ascent="1638" descent="-410" />
<missing-glyph horiz-adv-x="450" />
<glyph horiz-adv-x="0" />
<glyph unicode="&#xd;" horiz-adv-x="681" />
<glyph unicode=" "  horiz-adv-x="450" />
<glyph unicode="&#x09;" horiz-adv-x="450" />
<glyph unicode="&#xa0;" horiz-adv-x="450" />
<glyph unicode="!" horiz-adv-x="567" d="M221 381l-14 985q59 45 164 45l10 -10l-39 -1020q-12 -4 -27.5 -6t-31.5 -2q-39 0 -62 8zM186 170q41 23 99 23q23 0 43 -2.5t34.5 -11.5t22.5 -30.5t8 -60.5t-8 -60.5t-22.5 -30.5t-35 -10t-44.5 -1q-25 0 -45.5 1t-35 10t-22.5 30.5t-8 60.5q0 59 14 82z" />
<glyph unicode="&#x22;" horiz-adv-x="727" d="M440 1507q33 23 87.5 23t86.5 -23q12 -43 12.5 -68.5t-8.5 -74.5q-33 -160 -49 -305q-14 -10 -40.5 -10t-45.5 10q-12 131 -33.5 242.5t-21.5 137t12 68.5zM115 1507q35 23 87 23t87 -23q12 -43 12 -68.5t-10 -74.5q-31 -160 -47 -305q-14 -10 -41 -10t-45 10 q-12 131 -34 242.5t-21.5 137t12.5 68.5z" />
<glyph unicode="#" horiz-adv-x="1239" d="M831 981l72 313q27 8 71 8.5t73 -8.5l-72 -313h207q23 -68 0 -133h-236l-84 -373h228q27 -68 0 -133h-259l-69 -313q-25 -12 -71 -12.5t-70 12.5l69 313h-266l-70 -313q-25 -12 -71.5 -12.5t-71.5 12.5l70 313h-218q-27 68 0 133h248l84 373h-241q-23 66 0 133h270 l72 313q27 8 70.5 8.5t72.5 -8.5l-72 -313h264zM539 848l-84 -373h264l84 373h-264z" />
<glyph unicode="$" horiz-adv-x="1011" d="M80 207q2 74 65 123q199 -117 375 -117q104 0 171 43t67 123q0 66 -44 116t-136 83l-211 75q-240 86 -240 281q0 117 77 198.5t218 102.5v172q10 4 28.5 5t36.5 1q45 0 70 -6v-168q158 -10 317 -86q0 -78 -57 -123q-162 78 -315 78q-100 0 -160.5 -43t-60.5 -111 t38.5 -101.5t126.5 -64.5l205 -73q117 -41 190.5 -122t73.5 -206q0 -61 -24.5 -115.5t-71.5 -96.5t-115.5 -67.5t-154.5 -27.5v-158q-16 -4 -33.5 -4h-36.5h-33.5t-31.5 4v164q-195 25 -334 121z" />
<glyph unicode="%" horiz-adv-x="1763" d="M1565 57q-82 -82 -209 -82q-143 0 -225 99.5t-82 308.5q0 207 79.5 306t227.5 99q147 0 227 -100t80 -305q0 -226 -98 -326zM1354 680q-166 0 -166 -299q0 -297 166 -297q168 0 168 297q0 299 -168 299zM618 1341q96 -100 97 -323q0 -209 -82 -308.5t-225 -99.5 q-141 0 -223.5 99.5t-82.5 308.5q0 205 79 305t227 100q134 0 210 -82zM408 1315q-166 0 -166 -299q0 -297 166 -297q168 0 167 297q1 299 -167 299zM420 0l772 1399q27 10 76 10q23 0 43 -3t32 -7l-770 -1399q-14 -6 -34.5 -8t-42.5 -2q-23 0 -43.5 2t-32.5 8z" />
<glyph unicode="&#x26;" horiz-adv-x="1236" d="M983 301l12 -301q-31 -6 -73 -6q-43 0 -74 6l-12 80q-158 -104 -340 -105q-180 0 -280.5 107.5t-100.5 286.5q0 68 21.5 129t59 111t87 87t104.5 54q-92 33 -153.5 119.5t-61.5 193.5q0 76 29.5 142.5t85 114.5t132.5 75.5t173 27.5q29 0 86 -4t113.5 -11t142.5 -42 q0 -82 -43 -125q-86 25 -157.5 38t-131.5 13q-127 0 -195.5 -64.5t-68.5 -174.5q0 -111 69.5 -175.5t210.5 -64.5h367q127 0 182 27q20 -27 21 -76q0 -86 -133 -86h-74v-129zM831 547v74.5t3 56.5h-234q-80 0 -140.5 -25.5t-100.5 -67.5t-59 -98.5t-19 -117.5 q0 -123 65.5 -193t181.5 -70q176 0 303 105v336z" />
<glyph unicode="'" horiz-adv-x="397" d="M104 1507q35 23 87.5 23t87.5 -23q12 -43 12 -68.5t-8 -74.5q-33 -160 -50 -305q-14 -10 -40.5 -10t-45.5 10q-12 131 -33.5 242.5t-21.5 137t12 68.5z" />
<glyph unicode="(" horiz-adv-x="630" d="M602 -260q-27 -66 -94 -88q-86 86 -155.5 204.5t-118 254t-75 278.5t-26.5 279q0 135 26.5 278.5t75 278.5t118 252.5t155.5 203.5q68 -16 94 -86q-301 -379 -301 -927q0 -551 301 -928z" />
<glyph unicode=")" horiz-adv-x="630" d="M27 1595q31 70 96 86q86 -86 154.5 -203.5t117.5 -252.5t76 -278.5t27 -278.5t-27 -278.5t-75 -279t-117.5 -254t-155.5 -204.5q-66 23 -96 88q303 377 303 928q0 550 -303 927z" />
<glyph unicode="*" horiz-adv-x="1013" d="M100 1151q-4 29 11.5 71t35.5 66l99 -31q53 -16 217 -104q-31 135 -31 240l2 104q27 12 73 12t73 -12l2 -104q2 -66 -33 -242q139 82 221 106l98 29q20 -20 33.5 -62t11.5 -75l-98 -33q-78 -27 -240 -45q117 -102 170 -178l58 -84q-16 -27 -51 -52.5t-68 -31.5l-59 82 q-51 61 -119 213q-57 -139 -115 -213l-63 -82q-29 6 -65 31.5t-52 54.5l59 82q39 53 168 178q-154 12 -239 45z" />
<glyph unicode="+" d="M469 664l-2 77v295q31 8 78 8t73 -8v-295l-2 -77l76 2h273q8 -45 8 -75t-8 -67h-273l-76 2l2 -77v-295q-27 -8 -73.5 -8.5t-77.5 8.5v295l2 77l-76 -2h-272q-8 25 -8 70t8 72h272z" />
<glyph unicode="," horiz-adv-x="520" d="M371 186q23 -41 22 -120q0 -125 -68.5 -225.5t-199.5 -149.5q-25 14 -34 34.5t-9 49.5q156 78 158 207q-33 6 -51.5 13t-28.5 19.5t-13.5 33t-3.5 50.5q0 43 10.5 65.5t28 33t41 11.5t49.5 1q66 0 99 -23z" />
<glyph unicode="-" horiz-adv-x="686" d="M580 473h-471q-8 25 -8.5 68t8.5 73h471q6 -33 6 -73.5t-6 -67.5z" />
<glyph unicode="." horiz-adv-x="512" d="M150 6q-16 29 -17 90q0 43 9.5 66.5t26.5 34t39.5 11.5t49.5 1t48.5 -1t37.5 -12.5t25.5 -34t9.5 -65.5q0 -39 -6 -61.5t-20.5 -32.5t-37 -13t-55.5 -3q-71 0 -110 20z" />
<glyph unicode="/" horiz-adv-x="833" d="M20 -166l650 1718q80 -8 135 -51l-649 -1718q-68 0 -136 51z" />
<glyph unicode="0" d="M264 1241q106 111 277 111q221 0 326.5 -168t105.5 -522q0 -342 -101.5 -514.5t-328.5 -172.5q-221 0 -327.5 172t-102.5 517q0 111 7 197.5t24.5 156t47 124t72.5 99.5zM377 170q63 -70 166 -70q68 0 118 30t82.5 97.5t49 175t16.5 261.5t-16.5 261t-49 174.5t-83 97.5 t-117.5 30q-70 0 -120 -30t-83 -97.5t-48.5 -175t-15.5 -260.5q1 -379 101 -494z" />
<glyph unicode="1" d="M524 129l-2 129v578q0 2 6 254q-115 -156 -307 -238q-53 35 -67 94q139 84 238.5 188.5t135.5 192.5q33 8 73 8t73 -8v-1069l-2 -129l110 2h158q6 -35 6 -66.5t-6 -64.5h-725q-6 33 -6 65.5t6 65.5h199z" />
<glyph unicode="2" d="M956 139q0 -72 -19 -105.5t-87 -33.5h-649q-72 55 -72 102q-2 90 66.5 187.5t201.5 214.5l189 164q90 78 134 150.5t44 174.5q0 100 -64.5 165t-158.5 65t-168 -55.5t-117 -147.5q-86 10 -113 59q25 57 64 107.5t92 87.5t118.5 57.5t143.5 20.5t144.5 -28t115.5 -77 t77 -115.5t28 -144.5t-19.5 -137t-54.5 -110.5t-83 -97.5t-103 -97l-164 -142q-205 -176 -219 -274q57 4 118.5 7t126.5 3h428z" />
<glyph unicode="3" d="M872 1147l-245 -268q-18 -23 -84 -74h24q80 0 149.5 -24.5t123 -74t83 -124t29.5 -176.5q0 -100 -35.5 -180.5t-100 -135.5t-145.5 -85t-167 -30q-240 0 -391 125q16 68 71 109q143 -106 287 -107q147 0 233.5 83t86.5 225q0 139 -69 210.5t-175 71.5t-170 -39 q-53 29 -68 84l293 324q43 47 78 81t61 56l-6 8q-33 -8 -95 -12t-161 -4h-315q-6 25 -6 53q0 37 12 84h700q37 -68 37 -106q0 -35 -35 -74z" />
<glyph unicode="4" d="M770 311l2 -88v-223q-35 -6 -78 -6t-73 6v223l2 88l-86 -2h-402q-37 66 -37 88.5t43 126.5l357 813q31 8 74.5 0t70.5 -24l-291 -664q-78 -170 -98 -209l4 -6q117 6 215 6h150l-2 80v213q0 111 96 111h47l8 -6v-312l-2 -86l82 2h137q4 -25 4 -63.5t-10 -69.5h-131z" />
<glyph unicode="5" d="M885 1327q10 -37 10 -63q0 -74 -70 -74h-366h-68t-45 2v-131l-14 -240q106 57 219 58q180 0 291.5 -112t111.5 -329q0 -106 -33.5 -192t-97 -145.5t-148.5 -92.5t-183 -33q-201 0 -357 123q10 66 70 107q76 -53 149.5 -78t139.5 -25q129 0 213 89.5t84 252.5 q0 86 -21.5 144.5t-61.5 94.5t-93.5 52.5t-114.5 16.5q-129 0 -248 -105q-45 6 -72 51l27 617l12 12h666z" />
<glyph unicode="6" d="M272 94l-30 37q-25 27 -46.5 80t-38 126t-25.5 160t-9 183q0 156 32.5 280.5t97 212t160 133.5t220.5 46q172 0 274 -62q-10 -80 -61 -112q-104 47 -209 47q-90 0 -155.5 -36t-108.5 -99.5t-64.5 -151.5t-23.5 -193q137 137 315 138q180 0 279.5 -113t99.5 -324 q0 -102 -29.5 -188t-85 -149.5t-132.5 -98.5t-169 -35q-185 0 -291 119zM567 748q-72 0 -149.5 -40t-132.5 -108v-33q0 -104 17 -190t52 -147.5t87.5 -95.5t123.5 -34q117 0 184.5 88t67.5 242q0 318 -250 318z" />
<glyph unicode="7" d="M154 1327h792q31 -55 31 -93t-27 -79l-63 -92q-172 -260 -263.5 -481.5t-121.5 -520.5l-6 -61q-31 -8 -84.5 -8t-79.5 8l8 78q53 494 358 944l21 31q29 43 106 145l-6 6q-57 -14 -330 -14h-342q-6 27 -5.5 61.5t12.5 75.5z" />
<glyph unicode="8" d="M111 332q0 117 69.5 213t179.5 149q-213 109 -213 314q0 76 31 139t84 108t125 71t156 26q82 0 154.5 -24.5t124.5 -70t83 -105.5t31 -134q0 -104 -57.5 -183t-149.5 -126q244 -121 244 -361q0 -86 -34 -154.5t-94.5 -117.5t-141 -75t-173.5 -26q-94 0 -171.5 25t-133 71 t-85 111.5t-29.5 149.5zM487 647h-2q-100 -43 -157.5 -125t-57.5 -192q0 -53 20.5 -96.5t56.5 -74t85 -48t105 -17.5q57 0 107 17.5t87 51.5t58.5 80t21.5 105t-22.5 106.5t-62.5 83t-94 61.5t-118 42zM580 762l24 -8q82 41 128 108.5t46 159.5q0 45 -18.5 84t-50 66.5 t-75.5 44t-93 16.5q-98 0 -166 -61.5t-68 -159.5q1 -182 273 -250z" />
<glyph unicode="9" d="M813 1233l31 -37q23 -29 47 -82t39.5 -124.5t24 -159t8.5 -183.5q0 -156 -33 -280.5t-97.5 -211.5t-159.5 -133.5t-220 -46.5q-174 0 -275 62q10 80 62 113q104 -47 209 -48q88 0 153.5 36t109.5 100.5t65.5 151.5t23.5 192q-137 -137 -316 -138q-180 0 -279.5 112 t-99.5 323q0 104 31 191t85 149.5t131 97.5t169 35q185 0 291 -119zM518 580q72 0 149.5 38.5t133.5 106.5v35q0 106 -17.5 192t-53.5 147.5t-89 94.5t-123 33q-113 0 -181.5 -88t-68.5 -242q0 -317 250 -317z" />
<glyph unicode=":" horiz-adv-x="520" d="M154 6q-16 29 -17 90q0 43 9.5 66.5t26.5 34t40 11.5t49 1q27 0 48.5 -1t38 -12.5t25.5 -34t9 -65.5q0 -39 -6 -61.5t-20.5 -32.5t-37 -13t-55.5 -3q-71 0 -110 20zM154 702q-16 29 -17 91q0 43 9.5 66.5t26.5 33.5t40 11t49 1q27 0 48.5 -1t38 -12t25.5 -33.5t9 -65.5 q0 -39 -6 -61.5t-20.5 -33t-37 -13.5t-55.5 -3q-71 0 -110 20z" />
<glyph unicode=";" horiz-adv-x="528" d="M367 186q23 -41 22 -120q0 -125 -68.5 -225.5t-199.5 -149.5q-25 14 -34 34.5t-9 49.5q156 78 158 207q-33 6 -51.5 13t-29 19.5t-13.5 33t-3 50.5q0 43 10.5 65.5t28 33t41 11.5t49.5 1q66 0 99 -23zM158 702q-16 29 -17 91q0 43 9.5 66.5t27 33.5t40 11t48.5 1 q27 0 48.5 -1t38 -12t25.5 -33.5t9 -65.5q0 -39 -6 -61.5t-20.5 -33t-37 -13.5t-55.5 -3q-71 0 -110 20z" />
<glyph unicode="&#x3c;" d="M113 657l772 422q66 -45 73 -123l-548 -288q-20 -10 -77 -38t-61 -30v-14q4 -2 60.5 -30t77.5 -38l548 -289q-12 -80 -73 -123l-772 422q-18 76 0 129z" />
<glyph unicode="=" d="M965 350h-844q-8 27 -8 71t8 71h844q8 -27 8 -71t-8 -71zM965 702h-844q-8 27 -8 70t8 74h844q8 -31 8 -74t-8 -70z" />
<glyph unicode="&#x3e;" d="M973 530l-774 -421q-63 47 -72 122l549 289q20 10 76.5 38t60.5 30v14q-4 2 -60.5 29.5t-76.5 38.5l-549 288q8 78 74 123l772 -422q18 -76 0 -129z" />
<glyph unicode="?" horiz-adv-x="782" d="M33 1327q182 94 356 94t273.5 -91t99.5 -245q0 -236 -266 -391l-129 -76l-17 -237q-23 -8 -59 -8q-37 0 -60 8l-8 305l13 21l94 49q135 70 201.5 150.5t66.5 166.5q0 92 -58.5 149.5t-168.5 57.5q-59 0 -129 -17.5t-152 -56.5q-51 45 -57 121zM197 170q41 20 96 20 q25 0 45 -1t34.5 -10t22.5 -30.5t8 -60.5t-8 -60.5t-22.5 -30.5t-35 -10t-44.5 -1q-25 0 -45.5 1t-34.5 10t-22.5 30.5t-8.5 60.5q1 59 15 82z" />
<glyph unicode="@" horiz-adv-x="1908" d="M1321 846l-2 -531q0 -92 24.5 -128.5t79.5 -36.5q49 0 92.5 26.5t75 81.5t51 138t19.5 198q0 147 -48 270t-137.5 211t-215 137.5t-281.5 49.5q-154 0 -284 -60.5t-224 -166t-147.5 -251t-53.5 -315.5t46 -303t129 -225.5t201 -140.5t259 -48q246 0 422 74 q45 -37 45 -111q-233 -84 -475 -84q-172 0 -315.5 56.5t-247 164t-160.5 262t-57 351.5t65.5 363.5t180 288.5t273.5 191.5t345 69.5t340 -58t262.5 -162.5t168.5 -250t60 -319.5q0 -127 -31.5 -230.5t-87 -176t-129 -112.5t-155.5 -40q-168 0 -219 135q-55 -63 -132 -104.5 t-159 -41.5q-147 0 -235.5 120t-88.5 331q0 102 28 195.5t80 163t128 110.5t172 41q188 0 338 -133zM928 145q31 0 65.5 12.5t67.5 34t61.5 51t48.5 62.5v483q-74 74 -190 74q-59 0 -106.5 -31.5t-79 -85t-49 -123t-17.5 -145.5q0 -156 49.5 -244t149.5 -88z" />
<glyph unicode="A" horiz-adv-x="1220" d="M883 365l-144 -3h-274l-143 3l-119 -367q-27 -6 -66 -6t-80 10l-4 6l469 1391q35 6 92.5 6t83.5 -6l469 -1391q-33 -20 -82 -20t-69.5 16t-34.5 66zM367 498l118 2h236q2 0 50 -1t69 -1l-129 389q-78 240 -105 342h-10q-39 -152 -70 -244z" />
<glyph unicode="B" horiz-adv-x="1228" d="M215 0l-12 12v1374l12 13l399 6q223 0 326.5 -97.5t103.5 -271.5q0 -100 -53 -179t-147 -112q55 -16 104 -48.5t86 -81t57.5 -111t20.5 -135.5q0 -72 -27.5 -139.5t-85 -120t-147.5 -84t-215 -31.5zM358 123l291 2q86 0 143.5 23.5t91.5 60.5t48 86t14 102 q0 45 -16.5 93.5t-53 88t-97 65.5t-148.5 26h-273v-547zM358 1276v-475h252q76 0 128.5 18.5t84 51t45 75.5t13.5 92q0 236 -265 236h-155.5t-102.5 2z" />
<glyph unicode="C" horiz-adv-x="1228" d="M975 956q0 61 -17.5 122t-57.5 109t-102.5 76.5t-150.5 28.5q-174 0 -269 -153.5t-95 -436.5q0 -285 98 -437t278 -152q182 0 369 161q63 -37 86 -102q-86 -88 -212 -142.5t-267 -54.5q-137 0 -235.5 56.5t-161 155t-92 228.5t-29.5 277q0 182 41 319.5t112.5 228.5 t168 137t206.5 46q111 0 201 -32.5t153.5 -86t98.5 -123t35 -143.5q0 -92 -89 -92q-28 0 -69 10z" />
<glyph unicode="D" horiz-adv-x="1306" d="M975 96q-29 -25 -70 -44t-87 -32.5t-92 -20.5t-81 -7q-37 0 -143.5 2t-286.5 6l-12 12v1374l12 13q178 6 416 6q160 0 266.5 -55.5t171 -150.5t91 -225t26.5 -278q0 -102 -9.5 -189t-34 -161t-65.5 -136.5t-102 -113.5zM358 125l271 -2q117 0 192.5 46t119.5 122 t61.5 170t17.5 188q0 137 -14.5 252t-59.5 198t-125 129t-192 46l-271 2v-1151z" />
<glyph unicode="E" horiz-adv-x="1153" d="M354 211l-2 -78q70 4 127 4h561q0 -43 -4 -65q-14 -72 -100 -72h-645q-41 0 -64.5 27.5t-23.5 74.5v1284l12 13h791q4 -25 4 -65t-11 -70h-647l2 -127v-363l123 2h424q6 -37 6 -68.5t-6 -66.5h-424q-78 0 -123 2v-432z" />
<glyph unicode="F" horiz-adv-x="1052" d="M358 774l113 2h420q6 -37 6 -68.5t-6 -66.5h-420q-72 0 -113 2v-643q-31 -6 -78 -6t-77 6v1386l12 13h776q10 -31 10 -66q0 -72 -96 -71h-325q-162 0 -224 4l2 -287v-205z" />
<glyph unicode="G" horiz-adv-x="1304" d="M727 705h311q66 0 94.5 -26t28.5 -83v-530q-219 -90 -487 -91q-152 0 -264.5 60.5t-173.5 165.5q-119 205 -119 489q0 193 50 338.5t134 228.5q166 166 397 166q125 0 250 -41t211 -112q-16 -76 -84 -121q-166 133 -387 133q-176 0 -290.5 -141.5t-114.5 -452.5 q0 -575 419 -575q164 0 306 47v278q0 90 2 125h-224q-72 0 -71 74q0 27 12 68z" />
<glyph unicode="H" horiz-adv-x="1368" d="M1012 791l-2 151v457q27 6 73.5 6t81.5 -6v-1399q-35 -6 -80 -6t-75 6v504l2 151l-125 -2h-406l-125 2l2 -151v-504q-31 -6 -78 -6t-77 6v1399q31 6 78 6t77 -6v-457l-2 -151l125 2h406z" />
<glyph unicode="I" horiz-adv-x="577" d="M211 0v1399q29 6 75 6t81 -6v-1399q-35 -6 -81 -6t-75 6z" />
<glyph unicode="J" horiz-adv-x="892" d="M84 184q113 -70 242 -69q131 0 183 78.5t52 269.5v936q33 6 80 6t78 -6v-905q0 -98 -8.5 -167t-23.5 -117t-33.5 -79t-39.5 -53q-90 -98 -274 -98q-180 0 -320 83q15 70 64 121z" />
<glyph unicode="K" horiz-adv-x="1193" d="M1149 43q-35 -53 -95.5 -53t-83 23.5t-42.5 78.5l-131 334q-49 125 -109.5 175t-152 50t-177.5 -4v-647q-31 -6 -78 -6t-77 6v1399q31 6 78 6t77 -6v-613l150 5q39 0 70 49l301 487q27 43 47 59.5t53 16.5t94 -4l12 -17l-344 -557q-31 -49 -63 -75q98 -14 153.5 -75 t108.5 -188l125 -319q35 -86 84 -125z" />
<glyph unicode="L" horiz-adv-x="1036" d="M537 139h436q0 -45 -6 -67q-12 -72 -101 -72h-573q-39 0 -64.5 27.5t-25.5 76.5v1289l12 12h61q49 0 65.5 -23.5t16.5 -78.5v-1170q93 6 179 6z" />
<glyph unicode="M" horiz-adv-x="1624" d="M172 2l109 1397q39 6 105.5 6t100.5 -6l236 -719q18 -51 49 -164t35 -135h10q29 141 84 299l236 719q43 6 103 6t103 -6l109 -1397q-37 -10 -77 -10t-75 6l-59 848q-6 92 -16 387h-11l-323 -1014q-49 -8 -82 -8t-74 8l-325 1014h-11q-2 -51 -7 -193.5t-9 -193.5l-57 -848 q-37 -6 -78 -6t-76 10z" />
<glyph unicode="N" horiz-adv-x="1374" d="M1161 1405l13 -10v-1395q-39 -6 -96.5 -6t-98.5 6l-498 928q-61 115 -139 282h-6q12 -381 12 -442v-768q-43 -6 -75.5 -6t-69.5 6v1399q37 6 93 6t97 -6l498 -928q49 -88 143 -289h6q-14 262 -14 467v654q0 55 16.5 78.5t65.5 23.5h53z" />
<glyph unicode="O" horiz-adv-x="1337" d="M299 907q-10 -49 -13 -101t-3 -106q0 -92 14 -195.5t55 -192.5t117 -147.5t199 -58.5q82 0 143 29t104 75t69 107.5t41 128t21.5 132t6.5 122.5q0 90 -14.5 194.5t-56.5 193t-116.5 146.5t-197.5 58q-92 0 -158 -33.5t-108 -88t-65.5 -123t-37.5 -140.5zM334 94 q-217 193 -217 604q0 162 35.5 296t105.5 229.5t173.5 147.5t236.5 52q141 0 245.5 -58t173 -157.5t101.5 -230.5t33 -277q0 -162 -36 -296t-105.5 -229t-173 -147.5t-238.5 -52.5q-203 0 -334 119z" />
<glyph unicode="P" horiz-adv-x="1138" d="M215 1399l391 6q100 0 184 -28.5t142.5 -85t91.5 -138.5t33 -186q0 -211 -123 -326t-328 -115h-248v-526q-31 -6 -77 -6q-47 0 -78 6v1386zM358 1276v-621q41 2 103.5 2h148.5q78 0 132.5 26t87 69t47 100t14.5 121q0 57 -14.5 112.5t-48 96.5t-90 66.5t-140.5 25.5 h-141.5t-98.5 2z" />
<glyph unicode="Q" horiz-adv-x="1314" d="M946 -201l-250 178l-28 -2q-276 0 -413.5 190.5t-137.5 532.5q0 170 33.5 304.5t101 228.5t169 143t234.5 49q135 0 236.5 -50t169 -143t102.5 -226.5t35 -298.5q0 -129 -21.5 -241t-62.5 -200t-101.5 -148.5t-131.5 -86.5l45 -31q51 -37 88 -59.5t65.5 -37t53 -19.5 t53.5 -7q-4 -53 -37 -85t-84 -32q-60 0 -119 41zM655 1292q-373 0 -372 -590q0 -590 372 -589q375 0 375 589q0 590 -375 590z" />
<glyph unicode="R" horiz-adv-x="1212" d="M215 1399l414 6q211 0 327.5 -106.5t116.5 -299.5q0 -137 -71.5 -236t-196.5 -136q84 -27 137 -166l107 -277q23 -57 45 -93t43 -52q-33 -51 -109 -51q-43 0 -66.5 22.5t-46.5 79.5l-118 311q-35 92 -83 140.5t-143 48.5h-213v-590q-37 -6 -79 -6q-45 0 -76 6v1386z M358 1276v-555q43 2 105.5 3t148.5 1t142.5 22.5t91.5 59.5t49 87t14 105q0 57 -14 107.5t-49 87.5t-93.5 58.5t-146.5 21.5h-147.5t-100.5 2z" />
<glyph unicode="S" horiz-adv-x="1136" d="M80 129q6 76 72 125q209 -141 409 -141q145 0 229 61.5t84 167.5q0 158 -217 254l-239 104q-276 119 -277 344q0 78 33 148t91.5 121t140 80.5t182.5 29.5q199 0 405 -98q0 -80 -63 -131q-100 51 -185.5 73.5t-156.5 22.5q-66 0 -118 -18.5t-90 -48t-58.5 -69.5 t-20.5 -83q0 -90 52.5 -140t146.5 -89l231 -101q305 -133 305 -370q0 -178 -120.5 -287t-374.5 -109q-250 0 -461 154z" />
<glyph unicode="T" horiz-adv-x="989" d="M686 1264l-113 2v-1266q-33 -6 -77.5 -6t-79.5 6v1266l-111 -2h-262q-6 35 -6 66.5t6 68.5h901q12 -27 12 -66q0 -70 -96 -69h-174z" />
<glyph unicode="U" horiz-adv-x="1363" d="M1180 1399v-922q0 -123 -36 -216t-100.5 -156.5t-156.5 -96.5t-205 -33t-205 33t-156.5 96.5t-99.5 156.5t-35 216v916l13 12h61q49 0 65.5 -23.5t16.5 -78.5v-824q0 -180 89 -277.5t251 -97.5t251 95.5t89 279.5v920q31 6 78 6q45 0 80 -6z" />
<glyph unicode="V" horiz-adv-x="1140" d="M594 152l356 1247q29 6 68 6t72 -8l8 -13l-418 -1386q-61 -6 -111.5 -6t-76 15.5t-41.5 66.5l-396 1312q53 25 99 25q66 0 86 -76l243 -825q33 -109 95 -340q4 -18 16 -18z" />
<glyph unicode="W" horiz-adv-x="1681" d="M344 78l-264 1315q39 18 83 18t61.5 -18.5t27.5 -65.5l151 -784l70 -393q2 -14 5 -17.5t14 -3.5l251 1239q45 6 108.5 6t98.5 -6l232 -1218q4 -20 16 -21q18 102 80 414l180 856q31 6 74 6t74 -8l8 -11l-305 -1384q-51 -10 -120 -10t-93.5 17.5t-32.5 66.5l-115 606 q-66 350 -96 522h-12q-59 -326 -103 -522l-143 -682q-55 -8 -144.5 -8t-105.5 86z" />
<glyph unicode="X" horiz-adv-x="1171" d="M926 1399q10 4 28.5 6t36.5 2q23 0 44.5 -3t35.5 -11l6 -13l-395 -639l440 -716q-47 -37 -96 -37q-29 0 -57.5 15t-50.5 50l-343 555l-370 -608q-12 -4 -29.5 -6t-38.5 -2q-23 0 -45 3t-39 11l-6 12l449 719l-392 637q23 16 48.5 26.5t52.5 10.5q63 0 104 -65l293 -476z " />
<glyph unicode="Y" horiz-adv-x="985" d="M594 862l213 537q16 4 33.5 6t36.5 2q35 0 75 -10l6 -13l-385 -929v-455q-35 -6 -79 -6q-47 0 -78 6v461l-385 919q25 14 49 23.5t47 9.5q29 0 52.5 -17.5t39.5 -58.5l197 -475q14 -35 35.5 -92t48.5 -143h10q4 18 25.5 76.5t58.5 158.5z" />
<glyph unicode="Z" horiz-adv-x="1132" d="M133 184l551 858q31 47 158 226l-6 6q-70 -14 -322 -14h-348q-6 27 -6 61.5t12 77.5h811q23 -80 23 -108.5t-25 -71.5l-547 -848q-18 -31 -162 -234l7 -6q106 10 215 10h268q174 0 246 33q14 -43 14 -82q0 -92 -115 -92h-776q-23 74 -23 109.5t25 74.5z" />
<glyph unicode="[" horiz-adv-x="647" d="M580 -274l-363 -15l-12 13v1918l12 13l363 -15q4 -16 4 -47.5t-13 -68.5l-211 -6v-1670l211 -6q12 -41 12.5 -70.5t-3.5 -45.5z" />
<glyph unicode="\" horiz-adv-x="833" d="M676 -217l-649 1718q59 47 135 51l649 -1718q-61 -47 -135 -51z" />
<glyph unicode="]" horiz-adv-x="647" d="M428 -289l-362 15q-4 16 -4.5 45.5t12.5 70.5l211 6v1670l-211 6q-12 37 -12.5 68.5t4.5 47.5l362 15l14 -13v-1918z" />
<glyph unicode="^" d="M625 1327l352 -700q-23 -8 -74 -8.5t-82 8.5l-207 424q-14 31 -65 147h-12l-66 -147l-207 -424q-31 -8 -82 -8.5t-73 8.5l352 700q82 20 164 0z" />
<glyph unicode="_" horiz-adv-x="1044" d="M1044 -293h-1044q-6 25 -6 62.5t6 62.5h1044q6 -25 6 -62.5t-6 -62.5z" />
<glyph unicode="`" horiz-adv-x="815" d="M268 1479l281 -316q-23 -53 -72 -65l-334 266q37 88 125 115z" />
<glyph unicode="a" horiz-adv-x="1032" d="M918 63q-23 -57 -70 -77q-100 37 -127 143q-158 -154 -309 -154q-78 0 -135.5 25t-95.5 65.5t-57.5 94t-19.5 112.5q0 82 28 144.5t76 103.5t113.5 61.5t141.5 20.5q154 0 250 -18v102q0 209 -185 209q-141 0 -333 -84q-53 47 -54 119q221 96 402 96q317 0 317 -342v-422 q-2 -74 13.5 -122t44.5 -77zM713 268v205q-49 8 -102.5 11t-112.5 3q-117 0 -178.5 -54t-61.5 -142q0 -86 43 -136.5t117 -50.5q76 0 155 42t140 122z" />
<glyph unicode="b" horiz-adv-x="1073" d="M180 51v1442l13 12h55q49 0 65.5 -23.5t16.5 -78.5v-506q127 125 293 125t256 -138.5t90 -385.5q0 -123 -34 -218.5t-93.5 -161t-138 -99t-166.5 -33.5q-177 -1 -357 65zM330 745v-608q92 -35 207 -35q119 0 198.5 104.5t79.5 301.5q0 98 -16.5 170t-46 119t-66.5 69.5 t-80 22.5q-86 0 -156.5 -40.5t-119.5 -103.5z" />
<glyph unicode="c" horiz-adv-x="960" d="M727 649v23q0 45 -12.5 88t-38 75.5t-65.5 52t-95 19.5q-117 0 -184.5 -106.5t-67.5 -302.5q0 -197 66.5 -294.5t181.5 -97.5q121 0 276 113q55 -33 72 -96q-158 -147 -354 -148q-98 0 -172 39t-125 105.5t-77 158t-26 195.5q0 141 32 246.5t88.5 174.5t132 102.5 t161.5 33.5q88 0 153.5 -27.5t109.5 -70.5t66.5 -94.5t22.5 -96.5q0 -98 -79 -98q-29 0 -66 6z" />
<glyph unicode="d" horiz-adv-x="1075" d="M487 1022q123 0 256 -84v555l13 12h55q47 0 63.5 -23.5t16.5 -78.5v-1120q0 -162 57 -220q-20 -55 -67 -77q-94 33 -125 137q-127 -147 -299 -148q-178 0 -265.5 139.5t-87.5 387.5q0 125 33 222t86 163.5t121.5 100.5t142.5 34zM477 106q70 0 142.5 42t123.5 116v535 q-135 92 -237 92q-104 0 -176 -99.5t-72 -297.5q0 -199 62.5 -293.5t156.5 -94.5z" />
<glyph unicode="e" horiz-adv-x="1030" d="M901 457h-635q10 -348 264 -348q139 0 297 86q45 -41 56 -105q-168 -115 -377 -115q-106 0 -182 40t-124 111t-71 167t-23 211q0 117 28 213t81 165.5t128 108.5t171 39q94 0 169 -33.5t125 -92t76.5 -139.5t26.5 -173q0 -37 -3 -70.5t-7 -64.5zM266 573h492v27 q0 141 -59.5 227t-178.5 86q-117 0 -181.5 -92t-72.5 -248z" />
<glyph unicode="f" horiz-adv-x="655" d="M221 0v891l-176 -2q-6 31 -6 57q0 29 6 60l170 -5q-8 92 -11 144.5t-3 68.5q0 66 19.5 120.5t56 94t89 62t117.5 22.5q129 0 244 -43q0 -66 -37 -104q-59 16 -104 24.5t-80 8.5q-80 0 -122 -52.5t-42 -148.5q0 -78 18 -197l299 5q6 -31 7 -60q0 -27 -7 -57l-290 2v-891 q-31 -6 -74 -6t-74 6z" />
<glyph unicode="g" horiz-adv-x="1073" d="M774 920q29 72 109 100q49 -29 67 -80q-57 -55 -57 -219v-643q0 -143 -25.5 -243.5t-75 -164t-122 -92.5t-168.5 -29q-193 0 -352 70q2 72 43 119q137 -66 280 -66q82 0 135.5 22.5t85 65.5t44 103.5t12.5 136.5v119q-133 -135 -299 -135t-256.5 138t-90.5 386 q0 125 32 222t85 164t123 101.5t148 34.5q155 1 282 -110zM750 266v531q-59 51 -121 76.5t-117 25.5q-115 0 -184.5 -99.5t-69.5 -297.5q0 -197 60.5 -292t146.5 -95t160 41.5t125 109.5z" />
<glyph unicode="h" horiz-adv-x="1114" d="M944 700v-505q0 -117 25 -175q-35 -33 -97 -32q-78 0 -77 100v565q0 125 -33 177.5t-115 52.5t-170 -44t-147 -114v-725q-31 -6 -76 -6q-43 0 -74 6v1493l13 12h55q49 0 65.5 -23.5t16.5 -78.5v-529q70 66 164 107t188 41q137 0 199.5 -89.5t62.5 -232.5z" />
<glyph unicode="i" horiz-adv-x="524" d="M348 864v-864q-31 -6 -76 -6t-75 6v791q0 57 -18.5 77.5t-65.5 20.5h-19q-8 23 -8 55q0 33 8 57q39 4 63.5 7.5t39.5 3.5h16q63 0 99 -40t36 -108zM147 1356q33 20 95 20q59 0 81.5 -18.5t22.5 -77.5t-24.5 -78.5t-79.5 -19.5q-49 0 -79 15t-30 83q0 47 14 76z" />
<glyph unicode="j" horiz-adv-x="538" d="M362 864v-899q0 -57 -2 -117.5t-23.5 -116t-71.5 -102.5t-146 -78q-35 35 -47 97q41 20 67.5 43.5t43 52.5t22.5 66.5t6 91.5v889q0 57 -18.5 77.5t-65.5 20.5h-37q-8 35 -8 55q0 18 8 57q39 4 69.5 7.5t55.5 3.5h16q61 0 96 -40t35 -108zM162 1356q33 20 94 20 q59 0 81.5 -18.5t22.5 -77.5t-24.5 -78.5t-79.5 -19.5q-49 0 -79 15t-30 83q1 47 15 76z" />
<glyph unicode="k" horiz-adv-x="1003" d="M780 367l80 -181q53 -121 98 -153q-33 -45 -90 -45t-80.5 24.5t-48.5 81.5l-94 213q-39 90 -80 121t-108.5 31t-126.5 -8v-451q-31 -6 -75 -6t-75 6v1493l13 12h55q49 0 65.5 -23.5t16.5 -78.5v-823l88 4q29 0 47 28l219 324q27 41 49.5 58.5t53 17.5t87.5 -4l13 -17 l-260 -379q-27 -39 -49 -57q70 -14 116.5 -58t85.5 -130z" />
<glyph unicode="l" horiz-adv-x="579" d="M401 117h86q8 -18 11.5 -41t3.5 -41q0 -12 -1 -19.5t-1 -11.5q-33 -6 -63.5 -10t-61.5 -4q-84 0 -141.5 38t-57.5 134v1331l12 12h56q49 0 65.5 -23.5t16.5 -78.5v-1198q-1 -88 75 -88z" />
<glyph unicode="m" horiz-adv-x="1619" d="M739 655q0 123 -31.5 176.5t-103.5 53.5q-70 0 -144.5 -43t-127.5 -117v-725q-31 -6 -76 -6t-76 6v997l13 15h57q49 0 65.5 -25.5t16.5 -81.5v-31q129 147 299 148q170 0 231 -154q168 154 332 154q129 0 192.5 -87t63.5 -228v-512q0 -117 25 -175q-35 -33 -97 -32 q-78 0 -78 100v569q0 123 -31.5 175.5t-103.5 52.5q-70 0 -143.5 -41t-130.5 -115v-729q-31 -6 -76 -6t-76 6v655z" />
<glyph unicode="n" horiz-adv-x="1116" d="M948 702v-507q0 -117 23 -175q-33 -33 -97 -32q-78 0 -77 100v567q0 125 -31 177.5t-117 52.5q-82 0 -170 -44t-147 -114v-727q-31 -6 -76 -6t-76 6v999l13 13h57q49 0 65.5 -25.5t16.5 -81.5v-28q70 66 164 105.5t188 39.5q137 0 200.5 -88.5t63.5 -231.5z" />
<glyph unicode="o" horiz-adv-x="1062" d="M813 84q-109 -109 -283 -109q-102 0 -181 39t-133 107.5t-82 166t-28 214.5t28 214t82 166.5t133 108.5t181 39t181.5 -39t133.5 -108.5t82.5 -167t28.5 -213.5q0 -275 -143 -418zM532 94q131 0 200 111.5t69 296.5q0 82 -15.5 156.5t-48 131t-84 89t-123.5 32.5 q-70 0 -120 -31.5t-82.5 -87t-48 -130t-15.5 -160.5t15.5 -160t47 -129t82.5 -87t123 -32z" />
<glyph unicode="p" horiz-adv-x="1077" d="M330 68v-406q0 -55 -16.5 -78.5t-65.5 -23.5h-55l-13 12v1427l13 13h53q49 0 66.5 -25.5t17.5 -83.5v-10q123 137 293 137q174 0 262 -140t88 -388q0 -121 -32 -217.5t-84 -163t-119.5 -102t-139.5 -35.5q-141 0 -268 84zM330 733v-526q125 -92 235 -92q111 0 182.5 98 t71.5 297q0 98 -17.5 171t-46 121t-66.5 71.5t-81 23.5q-82 0 -155.5 -43t-122.5 -121z" />
<glyph unicode="q" horiz-adv-x="1073" d="M745 -338v449q-127 -127 -294 -127q-166 0 -256.5 138t-90.5 386q0 125 32 222t85 164t123 101.5t148 34.5q158 0 282 -106q35 70 109 96q49 -29 67 -80q-57 -55 -57 -219v-1149l-12 -12h-56q-47 0 -63.5 23.5t-16.5 78.5zM745 260v541q-115 98 -229 98 q-113 0 -185.5 -99.5t-72.5 -297.5q0 -195 61.5 -291t145.5 -96q86 0 157.5 39.5t122.5 105.5z" />
<glyph unicode="r" horiz-adv-x="722" d="M125 934q14 53 65 86q115 -43 148 -182q84 180 274 180q43 0 95 -8q0 -88 -35 -144q-25 2 -72 2q-166 0 -250 -186v-682q-31 -6 -76 -6t-75 6v725q0 139 -74 209z" />
<glyph unicode="s" horiz-adv-x="888" d="M76 78q2 63 59 110q92 -53 165 -73.5t132 -20.5q51 0 89 13.5t64.5 35t41 48t16.5 53.5q0 61 -38 103t-111 71l-115 45q-131 51 -196.5 119.5t-65.5 165.5q0 63 26.5 115t73.5 89t110.5 57.5t139.5 20.5q152 0 303 -67q0 -72 -47 -119q-78 35 -142.5 49t-117.5 14 q-94 0 -142.5 -43t-48.5 -98q0 -59 37 -93t117 -65l121 -47q254 -100 254 -297q0 -137 -104.5 -213t-282.5 -76q-174 1 -338 103z" />
<glyph unicode="t" horiz-adv-x="690" d="M625 1006q6 -31 6 -58.5t-6 -58.5l-260 2v-688q0 -86 79 -86h156q14 -35 14 -70t-4 -43q-94 -12 -194 -12q-199 0 -199 170v729l-145 -2q-6 31 -6 58.5t6 58.5l145 -2v215q0 55 16.5 78.5t63.5 23.5h55l13 -12v-308z" />
<glyph unicode="u" horiz-adv-x="1118" d="M170 301v510q0 109 -25 174q35 33 97 33q78 0 77 -100v-568q0 -129 33 -180t115 -51t170 44t147 113v728q12 4 33 6t43 2q23 0 42.5 -2t33.5 -6v-721q0 -164 57 -220q-18 -57 -69 -77q-100 33 -129 151q-70 -70 -167.5 -112.5t-195.5 -42.5q-137 0 -199.5 88t-62.5 231z " />
<glyph unicode="v" horiz-adv-x="905" d="M469 131l274 875q33 8 60.5 8t77.5 -13l4 -6q-188 -586 -336 -995q-41 -10 -98.5 -10t-79 17.5t-43.5 80.5l-305 905q53 27 92 27q59 0 75 -59l164 -488q61 -193 97 -326q4 -16 18 -16z" />
<glyph unicode="w" horiz-adv-x="1441" d="M287 88l-221 907q55 25 94 25q57 0 69 -62l109 -475q29 -127 74 -352q4 -18 16 -18l207 891q31 6 92 6t92 -6l195 -873q4 -18 16 -18q39 182 84 370l123 523q25 8 70 8t73 -13l4 -6l-254 -997q-43 -6 -105 -6t-90 18.5t-40 77.5l-72 320q-8 33 -40.5 197.5t-53.5 250.5 h-8q-10 -55 -98 -446l-99 -410q-47 -8 -108.5 -8t-88 18.5t-40.5 77.5z" />
<glyph unicode="x" horiz-adv-x="919" d="M684 1004q20 10 61 10q23 0 43.5 -3t34.5 -12l6 -12l-288 -455l333 -509q-55 -37 -102 -37q-49 0 -80 45l-243 377l-256 -410q-10 -4 -25.5 -6t-36.5 -2q-23 0 -43 3t-37 11l-6 12l326 510l-297 459q51 37 98 37q53 0 82 -47l211 -326z" />
<glyph unicode="y" horiz-adv-x="925" d="M893 995l-281 -960q-78 -264 -166 -372.5t-264 -108.5q-90 0 -166 26q-6 57 33 111q63 -23 135 -23q109 0 166.5 74t104.5 229l6 21q-53 4 -81 24.5t-46 75.5l-287 901q63 27 90 27q59 0 80 -72l162 -514q8 -25 94 -319q4 -14 21 -15l249 906q27 8 71 8t75 -13z" />
<glyph unicode="z" horiz-adv-x="909" d="M111 158l385 528l159 199l-6 6q-41 -4 -111.5 -7t-170.5 -3h-246q-4 20 -4 45q0 18 2 38.5t6 39.5h668q27 -61 26 -93q0 -31 -24 -63l-379 -516q-23 -33 -64 -84t-98 -123l6 -6q106 6 205 6h113q172 0 237 25q12 -35 12 -72q0 -78 -110 -78h-608q-12 35 -18.5 57.5 t-6.5 38.5t6.5 30t20.5 32z" />
<glyph unicode="{" horiz-adv-x="651" d="M84 717q72 29 118 92t46 158v358q0 135 73.5 216t196.5 101l88 15q16 -18 24.5 -51t0.5 -60l-88 -28q-137 -39 -137 -195v-352q0 -96 -45.5 -179t-118.5 -120v-17q74 -37 119 -119.5t45 -177.5v-356q0 -152 137 -195l88 -26q16 -63 -25 -113l-88 15q-123 20 -196.5 102 t-73.5 215v362q0 90 -46 156t-118 94q-8 18 -8 52.5t8 52.5z" />
<glyph unicode="|" horiz-adv-x="505" d="M180 -287v1874q31 6 71 6t75 -6v-1874q-35 -6 -75 -6t-71 6z" />
<glyph unicode="}" horiz-adv-x="651" d="M565 717q8 -18 8 -52t-8 -53q-72 -29 -118 -94t-46 -156v-362q0 -133 -73.5 -215t-196.5 -102l-86 -15q-41 45 -27 113l91 26q137 43 137 195v356q0 94 45 177t119 120v17q-74 37 -119 119.5t-45 179.5v352q0 156 -137 195l-91 28q-14 70 27 111l86 -15 q123 -20 196.5 -101t73.5 -216v-358q0 -94 46 -157.5t118 -92.5z" />
<glyph unicode="~" horiz-adv-x="1146" d="M535 696l157 -71q63 -27 113 -27q74 0 131 74l31 39q27 -2 53.5 -17.5t36.5 -40.5l-21 -37q-84 -164 -256 -163q-80 0 -168 41l-157 71q-55 25 -121 25t-121 -72l-33 -39q-27 2 -53.5 17.5t-36.5 40.5l21 36q84 164 256 164q80 0 168 -41z" />
<glyph unicode="&#xa1;" horiz-adv-x="567" d="M346 623l14 -985q-63 -45 -163 -46l-13 13l39 1018q12 4 28.5 6t33.5 2q16 0 32.5 -2t28.5 -6zM381 834q-18 -10 -44 -15.5t-54 -5.5q-25 0 -45.5 1t-35 10.5t-22.5 31t-8 59.5q0 74 28.5 89.5t82.5 15.5q59 0 85.5 -15.5t26.5 -89.5q0 -58 -14 -81z" />
<glyph unicode="&#xa2;" horiz-adv-x="964" d="M442 -61v204q-88 12 -150.5 57.5t-104.5 116t-62.5 162.5t-20.5 199q0 109 26 197t71 154.5t108.5 107.5t139.5 53v203q25 6 65 6q41 0 72 -6v-201q72 -10 126 -40t89 -71t53 -88t18 -92q0 -92 -81 -92q-31 0 -64 6v23q0 49 -12.5 91t-39 74.5t-66.5 51t-95 18.5 q-117 0 -181.5 -106.5t-64.5 -304.5q0 -389 258 -390q129 0 258 117q25 -12 48.5 -37.5t31.5 -50.5q-113 -131 -284 -158v-204q-18 -4 -37 -4.5t-35 -0.5t-33 0.5t-33 4.5z" />
<glyph unicode="&#xa3;" horiz-adv-x="1073" d="M436 563l2 -41q0 -178 -149 -389l6 -6q119 4 179.5 6t62.5 2h448q0 -70 -21.5 -102.5t-82.5 -32.5h-736q-25 74 -24 111q-2 23 6 39t18 32l37 58q47 78 78 148.5t27 137.5l-2 37q-27 -2 -66 -2h-90q-6 27 -6 57q0 31 6 68h72.5t52.5 -2q-25 76 -56.5 155t-31.5 156 q0 70 25.5 134.5t74.5 113.5t121 79t166 30q227 0 389 -144q-2 -33 -26.5 -66.5t-55.5 -43.5q-68 57 -148.5 89t-166.5 32q-41 0 -80 -15.5t-71 -45.5t-51 -72t-19 -95q0 -37 12 -87t26.5 -96t27.5 -81t18 -43l391 2q4 -16 6 -31.5t2 -31.5t-2 -30.5t-6 -31.5z" />
<glyph unicode="&#xa4;" horiz-adv-x="1159" d="M223 940l-147 158q35 59 90 90l158 -148q113 78 251 78q143 0 256 -76l160 148q63 -35 90 -90l-147 -158q41 -59 60.5 -125.5t19.5 -132.5q0 -139 -78 -252l147 -158q-27 -51 -90 -90l-157 148q-115 -78 -256 -78t-256 78l-158 -148q-29 16 -51.5 39t-38.5 51l147 158 q-41 55 -59.5 120.5t-18.5 133.5t18.5 132.5t59.5 121.5zM580 999q-61 0 -111.5 -24.5t-86.5 -66.5t-56.5 -99t-20.5 -123q0 -63 19.5 -119.5t55.5 -99.5t86 -67.5t114 -24.5q61 0 112 24.5t87 67.5t55.5 99.5t19.5 119.5q0 66 -20.5 123t-56.5 99t-86 66.5t-111 24.5z" />
<glyph unicode="&#xa5;" horiz-adv-x="1019" d="M899 375h-313v-375q-35 -6 -78 -6q-45 0 -76 6v375h-313q-8 23 -8 57q0 33 8 57h305l-80 181h-225q-8 23 -8 57q0 33 8 57h174l-234 531q23 14 47.5 22.5t47.5 8.5q29 0 52 -15.5t40 -50.5l182 -444q12 -31 33.5 -85.5t48.5 -132.5h10q35 98 56.5 151.5t25.5 66.5 l207 497q41 10 74 10q18 0 36.5 -2t34.5 -6l7 -12l-238 -539h176q6 -31 6 -57q0 -27 -6 -57h-227l-78 -181h305q6 -31 6 -57t-6 -57z" />
<glyph unicode="&#xa6;" horiz-adv-x="493" d="M176 -287v793q29 6 70 6t73 -6v-793q-33 -6 -73.5 -6t-69.5 6zM176 795v792q27 6 69 6t74 -6v-792q-33 -6 -73.5 -6t-69.5 6z" />
<glyph unicode="&#xa7;" horiz-adv-x="976" d="M682 311q145 -92 145 -231q0 -137 -102 -214t-276 -77q-176 0 -308 86q0 29 16.5 62.5t39.5 52.5q150 -78 258 -78q111 0 164 40t53 109q0 96 -154 158l-121 47q-152 59 -238.5 134t-86.5 184q0 111 62.5 189.5t160.5 127.5q-143 94 -143 232q0 70 27.5 124t74.5 90.5 t111.5 56t138.5 19.5q156 0 301 -69q0 -72 -47 -119q-152 66 -260 65q-94 0 -141.5 -43t-47.5 -106q0 -96 154 -158l119 -47q154 -61 240.5 -134t86.5 -183q0 -111 -63.5 -190t-163.5 -128zM528 799l-114 41q-184 -86 -185 -224q0 -72 58.5 -115.5t163.5 -84.5l110 -45 q190 88 191 225q0 72 -60 117t-164 86z" />
<glyph unicode="&#xa8;" horiz-adv-x="815" d="M508 1311q31 18 82 18q63 0 78.5 -25.5t15.5 -64.5q0 -41 -16.5 -63.5t-77.5 -22.5q-35 0 -54.5 7t-28.5 19.5t-11 28t-2 33.5q0 35 14 70zM145 1311q14 10 36 14t44 4q47 0 82 -18q6 -18 10.5 -37t4.5 -35q0 -43 -17.5 -64.5t-79.5 -21.5q-35 0 -53 7t-27.5 19.5 t-11.5 29t-2 32.5q0 35 14 70z" />
<glyph unicode="&#xa9;" horiz-adv-x="1658" d="M303 174q-211 211 -211 524q0 154 56.5 289t155.5 234.5t233.5 157t289.5 57.5q154 0 289 -57.5t235.5 -158t158 -234.5t57.5 -288t-57.5 -288t-158 -233t-234.5 -156.5t-290 -57.5q-313 0 -524 211zM406 1137q-170 -182 -170 -439q0 -127 45 -239.5t124.5 -196.5 t187 -133t234.5 -49t237 49t189.5 134t124.5 196.5t45 238.5q0 125 -46 239t-126 198t-188.5 134t-235.5 50q-251 0 -421 -182zM1006 797v18q0 72 -43 128t-136 56q-94 0 -150 -75.5t-56 -223.5q0 -145 57 -221t170 -76t215 93q45 -23 67 -80q-55 -57 -138 -93t-169 -36 q-162 0 -256 112.5t-94 305.5q0 98 29.5 173.5t79 128t115 80t137.5 27.5q74 0 130 -22.5t95 -58.5t59.5 -79t20.5 -84q0 -84 -72 -84q-30 1 -61 11z" />
<glyph unicode="&#xaa;" horiz-adv-x="831" d="M729 696q-12 -41 -63 -67q-80 29 -101 102q-121 -109 -241 -108q-119 0 -180.5 68.5t-61.5 160.5q0 129 80 190.5t221 61.5q39 0 82 -3t90 -7v61q0 152 -133 152q-129 0 -266 -62q-47 43 -47 105q174 74 321 73q252 0 252 -262v-311q0 -107 47 -154zM336 731 q117 0 219 115v145q-47 4 -86 8.5t-72 4.5q-86 0 -132 -38t-46 -104q0 -51 30 -91t77 -40h10z" />
<glyph unicode="&#xab;" horiz-adv-x="1077" d="M985 864l-301 -340l313 -352q-25 -59 -88 -84l-401 381q-18 53 0 106l389 373q63 -25 88 -84zM565 864l-301 -340l314 -352q-25 -59 -89 -84l-401 381q-18 53 0 106l389 373q63 -25 88 -84z" />
<glyph unicode="&#xac;" d="M813 539l-78 -2h-624q-8 25 -8.5 67.5t8.5 73.5h837l15 -12v-441q-31 -6 -75 -6t-77 6v236z" />
<glyph unicode="&#xad;" horiz-adv-x="686" d="M580 473h-471q-8 25 -8.5 68t8.5 73h471q6 -33 6 -73.5t-6 -67.5z" />
<glyph unicode="&#xae;" horiz-adv-x="1204" d="M229 627q-152 152 -151 370q0 109 41 205t111.5 167t166 112t203.5 41q109 0 204 -41t166.5 -113t112.5 -167t41 -204t-41 -204t-111.5 -165.5t-166.5 -111.5t-205 -41q-219 0 -371 152zM311 1292q-117 -121 -116 -295q0 -86 31.5 -161.5t86 -132t128 -89t159.5 -32.5 t161 32.5t130 89t87 132t32 161.5t-32 162t-87 133.5t-130 90t-161 32.5q-172 0 -289 -123zM803 1118q0 -113 -105 -145q27 -12 68 -84l33 -58q20 -41 43 -55q-23 -41 -64 -41q-45 -4 -80 62l-53 100q-23 43 -65 43h-64v-195q-25 -8 -53 -8q-31 0 -53 8v506l6 6 q61 2 112.5 3.5t92.5 1.5q86 0 134 -41.5t48 -102.5zM516 1178v-152h86q92 0 92 76t-84 76h-94z" />
<glyph unicode="&#xaf;" horiz-adv-x="815" d="M680 1184h-545q-6 29 -6 66.5t6 68.5h545q6 -31 6 -68.5t-6 -66.5z" />
<glyph unicode="&#xb0;" horiz-adv-x="643" d="M121 885q-80 82 -80 202q0 59 21.5 111.5t59.5 90.5t89 60.5t111 22.5q59 0 110 -21.5t90 -61.5t59.5 -92t20.5 -110q0 -59 -21.5 -111t-59.5 -90t-89 -60.5t-110 -22.5q-119 0 -201 82zM319 1257q-68 0 -109.5 -48t-41.5 -124q0 -74 42 -120.5t109 -46.5q70 0 112 48 t42 121q0 74 -42 122t-112 48z" />
<glyph unicode="&#xb1;" d="M469 752l-2 77v256q33 6 77 6.5t74 -6.5v-256l-2 -77l76 2h252q6 -35 6 -73t-6 -67h-252l-76 2l2 -77v-260q-31 -6 -74.5 -6.5t-76.5 6.5v260l2 77l-76 -2h-252q-6 29 -6 68t6 72h252zM944 0h-803q-6 37 -6 69.5t6 71.5h803q6 -39 6 -71.5t-6 -69.5z" />
<glyph unicode="&#xb2;" horiz-adv-x="860" d="M705 840q0 -66 -14.5 -94.5t-57.5 -28.5h-455q-47 53 -47 82q-2 59 41 118.5t127 129.5l129 106q61 51 87 87t26 91q0 53 -37 90t-94 37q-102 0 -162 -127q-72 10 -103 53q31 86 102.5 139.5t180.5 53.5q53 0 99 -19.5t81 -53.5t54.5 -77t19.5 -90t-10 -83.5t-30.5 -69.5 t-52.5 -63.5t-75 -65.5l-115 -92q-98 -80 -118 -132q35 4 69.5 6.5t71.5 2.5h283z" />
<glyph unicode="&#xb3;" horiz-adv-x="860" d="M643 1440l-135 -142q-10 -12 -25.5 -24t-33.5 -27h12q104 0 172.5 -69.5t68.5 -198.5q0 -63 -24.5 -113.5t-69.5 -86.5t-105.5 -54t-131.5 -18q-141 0 -250 84q10 59 51 98q57 -37 109.5 -53.5t97.5 -16.5q90 0 137 49.5t47 126.5q0 82 -50 120t-110 38q-53 0 -96 -25 q-43 16 -51 74l176 187l34.5 34.5t37.5 28.5l-4 6q-29 -4 -68 -7t-92 -3h-182q-6 27 -6 57q0 35 8 58h483q23 -39 23 -70q0 -30 -23 -53z" />
<glyph unicode="&#xb4;" horiz-adv-x="815" d="M274 1163l281 316q88 -27 125 -115l-334 -266q-49 12 -72 65z" />
<glyph unicode="&#xb6;" horiz-adv-x="1284" d="M600 119v413h-45q-205 0 -328 114t-123 326t123 323.5t328 111.5q76 0 190 -6l13 -12v-1250q0 -129 -17.5 -212t-68.5 -140q-88 -100 -244 -100t-266 47q0 70 43 125q102 -45 203.5 -45t146.5 64.5t45 240.5zM895 -274v1660l12 13h310q8 -25 8 -70t-8 -69h-97 q-47 0 -67 2v-1536q-35 -6 -81 -6t-77 6z" />
<glyph unicode="&#xb7;" horiz-adv-x="595" d="M199 487q-16 29 -17 91q0 43 9.5 65.5t24.5 33.5t36.5 12t46.5 1q27 0 47.5 -2t35.5 -13t23.5 -34t8.5 -63q0 -35 -4 -56.5t-16.5 -34t-35 -16.5t-57.5 -4q-67 0 -102 20z" />
<glyph unicode="&#xb8;" horiz-adv-x="815" d="M309 -147q20 78 53 147h115q-10 -23 -19 -43t-16 -39q78 -6 129.5 -53t51.5 -127q0 -82 -64.5 -134.5t-159.5 -52.5q-96 0 -153 39q2 43 37 91q47 -29 102 -29t79.5 25.5t24.5 64.5q0 47 -31.5 67.5t-66.5 20.5q-27 0 -51 -10q-21 8 -31 33z" />
<glyph unicode="&#xb9;" horiz-adv-x="860" d="M311 836l95 -2v411q0 31 4 109q-68 -90 -203 -150q-49 27 -55 88q184 106 260 271q31 8 61.5 8t65.5 -8v-729l96 2h74q6 -25 6 -54.5t-6 -60.5h-514q-6 33 -6.5 61.5t6.5 53.5h116z" />
<glyph unicode="&#xba;" horiz-adv-x="796" d="M618 1343q111 -121 111 -321q0 -84 -20.5 -156.5t-61.5 -126t-103.5 -85t-146.5 -31.5t-146.5 31.5t-103.5 85t-61 126t-20 156.5t20 156.5t61 127t103.5 86t146.5 31.5q135 0 221 -80zM252 1231q-45 -82 -45 -207q0 -61 10 -114.5t33.5 -91.5t59.5 -60.5t87 -22.5 t87 22.5t59.5 61.5t35 91.5t11.5 113.5q0 59 -11.5 112.5t-35 93.5t-60.5 62.5t-86 22.5q-98 0 -145 -84z" />
<glyph unicode="&#xbb;" horiz-adv-x="1077" d="M92 172l303 340l-315 352q29 59 90 84l399 -381q8 -20 8.5 -53t-8.5 -53l-387 -373q-61 25 -90 84zM512 172l303 340l-315 352q29 59 90 84l399 -381q10 -20 10 -52t-10 -54l-387 -373q-61 25 -90 84z" />
<glyph unicode="&#xbc;" horiz-adv-x="1814" d="M245 674l95 -2v411q0 31 4 109q-68 -90 -203 -150q-49 27 -55 88q184 106 260 271q31 8 61.5 8t65.5 -8v-729l96 2h74q6 -25 6 -54.5t-6 -60.5h-514q-6 33 -6.5 61.5t6.5 53.5h116zM522 0l772 1399q25 10 76 10t75 -10l-770 -1399q-27 -10 -77.5 -10t-75.5 10zM1454 2 v168h-328q-31 49 -30.5 78.5t30.5 91.5l244 512q31 4 70 -4t55 -27l-182 -395q-47 -98 -74 -135l2 -4q45 2 119 2h94v147q0 43 22.5 67.5t59.5 24.5h45l2 -4v-235h135q6 -23 6 -59t-12 -60h-129v-168q-18 -8 -61 -8t-68 8z" />
<glyph unicode="&#xbd;" horiz-adv-x="1814" d="M245 674l95 -2v411q0 31 4 109q-68 -90 -203 -150q-49 27 -55 88q184 106 260 271q31 8 61.5 8t65.5 -8v-729l96 2h74q6 -25 6 -54.5t-6 -60.5h-514q-6 33 -6.5 61.5t6.5 53.5h116zM488 0l772 1399q25 10 76 10t75 -10l-770 -1399q-27 -10 -77.5 -10t-75.5 10zM1711 121 q0 -66 -14.5 -94.5t-57.5 -28.5h-455q-47 53 -47 82q-2 59 41 118.5t127 129.5l129 106q61 51 87 87t26 91q0 53 -37 90t-94 37q-102 0 -162 -127q-72 10 -103 53q31 86 102.5 139.5t180.5 53.5q53 0 99 -19.5t81 -53.5t54.5 -77t19.5 -90t-10 -83.5t-30.5 -69.5 t-52.5 -63.5t-75 -65.5l-115 -92q-98 -80 -118 -132q35 4 69.5 6.5t71.5 2.5h283z" />
<glyph unicode="&#xbe;" horiz-adv-x="1814" d="M637 1278l-135 -142q-10 -12 -25.5 -24t-33.5 -27h12q104 0 172.5 -69.5t68.5 -198.5q0 -63 -24.5 -113.5t-69.5 -86.5t-105.5 -54t-131.5 -18q-141 0 -250 84q10 59 51 98q57 -37 109.5 -53.5t97.5 -16.5q90 0 137 49.5t47 126.5q0 82 -50 120t-110 38q-53 0 -96 -25 q-43 16 -51 74l176 187l34.5 34.5t37.5 28.5l-4 6q-29 -4 -68 -7t-92 -3h-182q-6 27 -6 57q0 35 8 58h483q23 -39 23 -70q0 -30 -23 -53zM506 0l772 1399q25 10 76 10t75 -10l-770 -1399q-27 -10 -77.5 -10t-75.5 10zM1464 2v168h-328q-31 49 -30.5 78.5t30.5 91.5l244 512 q31 4 70 -4t55 -27l-182 -395q-47 -98 -74 -135l2 -4q45 2 119 2h94v147q0 43 22.5 67.5t59.5 24.5h45l2 -4v-235h135q6 -23 6 -59t-12 -60h-129v-168q-18 -8 -61 -8t-68 8z" />
<glyph unicode="&#xbf;" horiz-adv-x="782" d="M750 -322q-182 -96 -357 -96q-174 0 -273.5 91t-99.5 245q-2 123 65 218t202 173l131 76l14 238q12 4 27.5 6t32.5 2q16 0 32.5 -2t28.5 -6l8 -306l-14 -18l-92 -49q-268 -145 -269 -318q0 -94 58.5 -152.5t169.5 -58.5q119 0 280 78q50 -49 56 -121zM586 834 q-18 -10 -43 -15.5t-54 -5.5q-25 0 -45 1t-34.5 10.5t-22.5 31t-8 59.5q0 74 27.5 89.5t82.5 15.5t84 -15.5t29 -89.5q0 -58 -16 -81z" />
<glyph unicode="&#xc0;" horiz-adv-x="1220" d="M883 365l-144 -3h-274l-143 3l-119 -367q-27 -6 -66 -6t-80 10l-4 6l469 1391q35 6 92.5 6t83.5 -6l469 -1391q-33 -20 -82 -20t-69.5 16t-34.5 66zM367 498l118 2h236q2 0 50 -1t69 -1l-129 389q-78 240 -105 342h-10q-39 -152 -70 -244zM430 1806l391 -227 q-12 -61 -49 -86l-419 176q14 98 77 137z" />
<glyph unicode="&#xc1;" horiz-adv-x="1220" d="M883 365l-144 -3h-274l-143 3l-119 -367q-27 -6 -66 -6t-80 10l-4 6l469 1391q35 6 92.5 6t83.5 -6l469 -1391q-33 -20 -82 -20t-69.5 16t-34.5 66zM367 498l118 2h236q2 0 50 -1t69 -1l-129 389q-78 240 -105 342h-10q-39 -152 -70 -244zM430 1579l391 227 q59 -37 78 -137l-420 -176q-41 29 -49 86z" />
<glyph unicode="&#xc2;" horiz-adv-x="1220" d="M883 365l-144 -3h-274l-143 3l-119 -367q-27 -6 -66 -6t-80 10l-4 6l469 1391q35 6 92.5 6t83.5 -6l469 -1391q-33 -20 -82 -20t-69.5 16t-34.5 66zM367 498l118 2h236q2 0 50 -1t69 -1l-129 389q-78 240 -105 342h-10q-39 -152 -70 -244zM834 1511l-223 154l-232 -166 q-57 25 -70 74l228 221q72 12 145 0l228 -211q-19 -56 -76 -72z" />
<glyph unicode="&#xc3;" horiz-adv-x="1220" d="M883 365l-144 -3h-274l-143 3l-119 -367q-27 -6 -66 -6t-80 10l-4 6l469 1391q35 6 92.5 6t83.5 -6l469 -1391q-33 -20 -82 -20t-69.5 16t-34.5 66zM367 498l118 2h236q2 0 50 -1t69 -1l-129 389q-78 240 -105 342h-10q-39 -152 -70 -244zM645 1546l-125 60 q-18 8 -34.5 13t-32.5 5q-20 -2 -43 -12t-45 -39l-25 -33q-55 4 -78 47l17 41q27 66 79 98.5t109 32.5q27 2 53.5 -6t55.5 -20l125 -60q16 -8 32.5 -13t32.5 -5q20 0 44 10t46 41l25 33q49 -2 78 -51l-17 -39q-29 -66 -77 -98.5t-109 -32.5q-50 -1 -111 28z" />
<glyph unicode="&#xc4;" horiz-adv-x="1220" d="M883 365l-144 -3h-274l-143 3l-119 -367q-27 -6 -66 -6t-80 10l-4 6l469 1391q35 6 92.5 6t83.5 -6l469 -1391q-33 -20 -82 -20t-69.5 16t-34.5 66zM367 498l118 2h236q2 0 50 -1t69 -1l-129 389q-78 240 -105 342h-10q-39 -152 -70 -244zM729 1675q12 8 35 12.5t47 4.5 q51 0 88 -17q12 -41 13 -76q0 -18 -1 -34.5t-9.5 -28.5t-30 -19.5t-60.5 -7.5t-58.5 8.5t-28.5 20.5t-10 28.5t-1 32.5q0 43 16 76zM322 1675q16 8 39.5 12.5t48.5 4.5q35 0 54.5 -7.5t28.5 -19.5t11 -29.5t2 -36.5v-32.5t-9 -28.5t-29.5 -20.5t-59.5 -8.5q-41 0 -60.5 8.5 t-29 20.5t-9.5 28.5v32.5q1 33 13 76z" />
<glyph unicode="&#xc5;" horiz-adv-x="1220" d="M883 365l-418 -3l-143 3l-119 -367q-25 -6 -62 -6q-20 0 -40.5 2t-47.5 14l467 1383q-61 27 -97 80t-36 131q0 39 17.5 75.5t47 65.5t70.5 46t88 17t88 -17t72 -47t48.5 -67t17.5 -73q0 -78 -37 -132.5t-99 -78.5l467 -1383q-33 -20 -82 -20t-69.5 16t-34.5 66zM367 498 l354 2l119 -2l-129 389q-41 121 -65.5 206t-39.5 136h-10q-20 -76 -36.5 -136.5t-33.5 -107.5zM610 1706q-45 0 -74.5 -33t-29.5 -84q0 -49 29.5 -81.5t74.5 -32.5t75 32.5t30 81.5q0 51 -30 84t-75 33z" />
<glyph unicode="&#xc6;" horiz-adv-x="1783" d="M834 365l-134 -3h-184l-125 3l-186 -367q-33 -6 -75 -6t-73 10l-14 6l709 1374q35 16 94 17h792q4 -25 4 -66t-12 -69h-645l2 -127v-363l121 2h424q6 -37 6 -68.5t-6 -66.5h-424q-78 0 -121 2v-432l-2 -78q74 4 125 4h561q0 -43 -4 -65q-12 -72 -100 -72h-643 q-41 0 -65.5 27.5t-24.5 74.5v263zM702 500l132 -2v731h-13q-14 -35 -112 -244l-250 -487l96 2h147z" />
<glyph unicode="&#xc7;" horiz-adv-x="1228" d="M545 -147q20 74 43 124q-123 8 -214 68.5t-145.5 158t-83 223.5t-28.5 265q0 182 41 319.5t112.5 228.5t168 137t206.5 46q111 0 201 -32.5t153.5 -86t98.5 -123t35 -143.5q0 -92 -89 -92q-6 0 -17 1t-23.5 3t-20.5 6.5t-8 10.5q0 61 -18.5 119.5t-58.5 104.5 t-102.5 73.5t-148.5 27.5q-174 0 -269 -153.5t-95 -436.5q0 -285 98 -437t278 -152q182 0 369 161q63 -37 86 -102q-162 -166 -409 -192q-10 -18 -16.5 -34t-10.5 -28q80 -6 131 -53t51 -127q0 -41 -17.5 -75t-48 -58.5t-71.5 -39t-88 -14.5q-96 0 -154 39q4 49 39 91 q45 -29 98 -29q57 0 83 25.5t26 64.5q0 47 -31.5 67.5t-66.5 20.5q-27 0 -51 -10q-23 8 -33 33z" />
<glyph unicode="&#xc8;" horiz-adv-x="1153" d="M354 211l-2 -78q70 4 127 4h561q0 -43 -4 -65q-14 -72 -100 -72h-645q-41 0 -64.5 27.5t-23.5 74.5v1284l12 13h791q4 -25 4 -65t-11 -70h-647l2 -127v-363l123 2h424q6 -37 6 -68.5t-6 -66.5h-424q-78 0 -123 2v-432zM432 1806l391 -227q-12 -61 -49 -86l-419 176 q14 98 77 137z" />
<glyph unicode="&#xc9;" horiz-adv-x="1153" d="M354 211l-2 -78q70 4 127 4h561q0 -43 -4 -65q-14 -72 -100 -72h-645q-41 0 -64.5 27.5t-23.5 74.5v1284l12 13h791q4 -25 4 -65t-11 -70h-647l2 -127v-363l123 2h424q6 -37 6 -68.5t-6 -66.5h-424q-78 0 -123 2v-432zM432 1579l391 227q59 -37 78 -137l-420 -176 q-41 29 -49 86z" />
<glyph unicode="&#xca;" horiz-adv-x="1153" d="M354 211l-2 -78q70 4 127 4h561q0 -43 -4 -65q-14 -72 -100 -72h-645q-41 0 -64.5 27.5t-23.5 74.5v1284l12 13h791q4 -25 4 -65t-11 -70h-647l2 -127v-363l123 2h424q6 -37 6 -68.5t-6 -66.5h-424q-78 0 -123 2v-432zM836 1511l-223 154l-232 -166q-57 25 -70 74 l228 221q72 12 145 0l228 -211q-19 -56 -76 -72z" />
<glyph unicode="&#xcb;" horiz-adv-x="1153" d="M354 211l-2 -78q70 4 127 4h561q0 -43 -4 -65q-14 -72 -100 -72h-645q-41 0 -64.5 27.5t-23.5 74.5v1284l12 13h791q4 -25 4 -65t-11 -70h-647l2 -127v-363l123 2h424q6 -37 6 -68.5t-6 -66.5h-424q-78 0 -123 2v-432zM731 1675q12 8 35 12.5t47 4.5q51 0 88 -17 q12 -41 13 -76q0 -18 -1 -34.5t-9.5 -28.5t-30 -19.5t-60.5 -7.5t-58.5 8.5t-28.5 20.5t-10 28.5t-1 32.5q0 43 16 76zM324 1675q16 8 39.5 12.5t48.5 4.5q35 0 54.5 -7.5t28.5 -19.5t11 -29.5t2 -36.5v-32.5t-9 -28.5t-29.5 -20.5t-59.5 -8.5q-41 0 -60.5 8.5t-29 20.5 t-9.5 28.5v32.5q1 33 13 76z" />
<glyph unicode="&#xcc;" horiz-adv-x="577" d="M211 0v1399q29 6 75 6t81 -6v-1399q-35 -6 -81 -6t-75 6zM110 1806l391 -227q-12 -61 -49 -86l-419 176q14 98 77 137z" />
<glyph unicode="&#xcd;" horiz-adv-x="577" d="M211 0v1399q29 6 75 6t81 -6v-1399q-35 -6 -81 -6t-75 6zM110 1579l391 227q59 -37 78 -137l-420 -176q-41 29 -49 86z" />
<glyph unicode="&#xce;" horiz-adv-x="577" d="M211 0v1399q29 6 75 6t81 -6v-1399q-35 -6 -81 -6t-75 6zM514 1511l-223 154l-232 -166q-57 25 -70 74l228 221q72 12 145 0l228 -211q-19 -56 -76 -72z" />
<glyph unicode="&#xcf;" horiz-adv-x="577" d="M211 0v1399q29 6 75 6t81 -6v-1399q-35 -6 -81 -6t-75 6zM409 1675q12 8 35 12.5t47 4.5q51 0 88 -17q12 -41 13 -76q0 -18 -1 -34.5t-9.5 -28.5t-30 -19.5t-60.5 -7.5t-58.5 8.5t-28.5 20.5t-10 28.5t-1 32.5q0 43 16 76zM2 1675q16 8 39.5 12.5t48.5 4.5 q35 0 54.5 -7.5t28.5 -19.5t11 -29.5t2 -36.5v-32.5t-9 -28.5t-29.5 -20.5t-59.5 -8.5q-41 0 -60.5 8.5t-29 20.5t-9.5 28.5v32.5q1 33 13 76z" />
<glyph unicode="&#xd0;" horiz-adv-x="1339" d="M1008 96q-29 -25 -70 -44t-87 -32.5t-92 -20.5t-81 -7q-37 0 -143.5 2t-286.5 6l-12 12v629h-170q-6 31 -7 66q0 33 7 69h170v610l12 13q178 6 416 6q160 0 266 -55.5t171.5 -151.5t91.5 -225t26 -275q0 -205 -43 -351.5t-168 -250.5zM662 1274h-271v-498h348 q6 -37 6 -69q0 -35 -6 -66h-348v-516l271 -2q119 0 196.5 46t118.5 126t58.5 184.5t17.5 220.5q0 291 -96 432.5t-295 141.5z" />
<glyph unicode="&#xd1;" horiz-adv-x="1374" d="M1161 1405l13 -10v-1395q-39 -6 -96.5 -6t-98.5 6l-498 928q-61 115 -139 282h-6q12 -381 12 -442v-768q-43 -6 -75.5 -6t-69.5 6v1399q37 6 93 6t97 -6l498 -928q49 -88 143 -289h6q-14 262 -14 467v654q0 55 16.5 78.5t65.5 23.5h53zM727 1546l-125 60q-18 8 -34.5 13 t-32.5 5q-20 -2 -43 -12t-45 -39l-25 -33q-55 4 -78 47l17 41q27 66 79 98.5t109 32.5q27 2 53.5 -6t55.5 -20l125 -60q16 -8 32.5 -13t32.5 -5q20 0 44 10t46 41l25 33q49 -2 78 -51l-17 -39q-29 -66 -77 -98.5t-109 -32.5q-50 -1 -111 28z" />
<glyph unicode="&#xd2;" horiz-adv-x="1337" d="M299 907q-10 -49 -13 -101t-3 -106q0 -92 14 -195.5t55 -192.5t117 -147.5t199 -58.5q82 0 143 29t104 75t69 107.5t41 128t21.5 132t6.5 122.5q0 90 -14.5 194.5t-56.5 193t-116.5 146.5t-197.5 58q-92 0 -158 -33.5t-108 -88t-65.5 -123t-37.5 -140.5zM334 94 q-217 193 -217 604q0 162 35.5 296t105.5 229.5t173.5 147.5t236.5 52q141 0 245.5 -58t173 -157.5t101.5 -230.5t33 -277q0 -162 -36 -296t-105.5 -229t-173 -147.5t-238.5 -52.5q-203 0 -334 119zM487 1806l391 -227q-12 -61 -49 -86l-419 176q14 98 77 137z" />
<glyph unicode="&#xd3;" horiz-adv-x="1337" d="M299 907q-10 -49 -13 -101t-3 -106q0 -92 14 -195.5t55 -192.5t117 -147.5t199 -58.5q82 0 143 29t104 75t69 107.5t41 128t21.5 132t6.5 122.5q0 90 -14.5 194.5t-56.5 193t-116.5 146.5t-197.5 58q-92 0 -158 -33.5t-108 -88t-65.5 -123t-37.5 -140.5zM334 94 q-217 193 -217 604q0 162 35.5 296t105.5 229.5t173.5 147.5t236.5 52q141 0 245.5 -58t173 -157.5t101.5 -230.5t33 -277q0 -162 -36 -296t-105.5 -229t-173 -147.5t-238.5 -52.5q-203 0 -334 119zM487 1579l391 227q59 -37 78 -137l-420 -176q-41 29 -49 86z" />
<glyph unicode="&#xd4;" horiz-adv-x="1337" d="M299 907q-10 -49 -13 -101t-3 -106q0 -92 14 -195.5t55 -192.5t117 -147.5t199 -58.5q82 0 143 29t104 75t69 107.5t41 128t21.5 132t6.5 122.5q0 90 -14.5 194.5t-56.5 193t-116.5 146.5t-197.5 58q-92 0 -158 -33.5t-108 -88t-65.5 -123t-37.5 -140.5zM334 94 q-217 193 -217 604q0 162 35.5 296t105.5 229.5t173.5 147.5t236.5 52q141 0 245.5 -58t173 -157.5t101.5 -230.5t33 -277q0 -162 -36 -296t-105.5 -229t-173 -147.5t-238.5 -52.5q-203 0 -334 119zM891 1511l-223 154l-232 -166q-57 25 -70 74l228 221q72 12 145 0 l228 -211q-19 -56 -76 -72z" />
<glyph unicode="&#xd5;" horiz-adv-x="1337" d="M299 907q-10 -49 -13 -101t-3 -106q0 -92 14 -195.5t55 -192.5t117 -147.5t199 -58.5q82 0 143 29t104 75t69 107.5t41 128t21.5 132t6.5 122.5q0 90 -14.5 194.5t-56.5 193t-116.5 146.5t-197.5 58q-92 0 -158 -33.5t-108 -88t-65.5 -123t-37.5 -140.5zM334 94 q-217 193 -217 604q0 162 35.5 296t105.5 229.5t173.5 147.5t236.5 52q141 0 245.5 -58t173 -157.5t101.5 -230.5t33 -277q0 -162 -36 -296t-105.5 -229t-173 -147.5t-238.5 -52.5q-203 0 -334 119zM704 1546l-125 60q-18 8 -34.5 13t-32.5 5q-20 -2 -43 -12t-45 -39 l-25 -33q-55 4 -78 47l17 41q27 66 79 98.5t109 32.5q27 2 53.5 -6t55.5 -20l125 -60q16 -8 32.5 -13t32.5 -5q20 0 44 10t46 41l25 33q49 -2 78 -51l-17 -39q-29 -66 -77 -98.5t-109 -32.5q-50 -1 -111 28z" />
<glyph unicode="&#xd6;" horiz-adv-x="1337" d="M299 907q-10 -49 -13 -101t-3 -106q0 -92 14 -195.5t55 -192.5t117 -147.5t199 -58.5q82 0 143 29t104 75t69 107.5t41 128t21.5 132t6.5 122.5q0 90 -14.5 194.5t-56.5 193t-116.5 146.5t-197.5 58q-92 0 -158 -33.5t-108 -88t-65.5 -123t-37.5 -140.5zM334 94 q-217 193 -217 604q0 162 35.5 296t105.5 229.5t173.5 147.5t236.5 52q141 0 245.5 -58t173 -157.5t101.5 -230.5t33 -277q0 -162 -36 -296t-105.5 -229t-173 -147.5t-238.5 -52.5q-203 0 -334 119zM786 1675q12 8 35 12.5t47 4.5q51 0 88 -17q12 -41 13 -76q0 -18 -1 -34.5 t-9.5 -28.5t-30 -19.5t-60.5 -7.5t-58.5 8.5t-28.5 20.5t-10 28.5t-1 32.5q0 43 16 76zM379 1675q16 8 39.5 12.5t48.5 4.5q35 0 54.5 -7.5t28.5 -19.5t11 -29.5t2 -36.5v-32.5t-9 -28.5t-29.5 -20.5t-59.5 -8.5q-41 0 -60.5 8.5t-29 20.5t-9.5 28.5v32.5q1 33 13 76z" />
<glyph unicode="&#xd7;" d="M543 496l-277 -281q-31 12 -60.5 42t-41.5 62l278 275q-49 49 -278 276q33 78 102 105l230 -232q14 -20 47 -49l276 281q76 -39 103 -105q-231 -227 -244 -239l-37 -37l281 -275q-31 -78 -103 -104l-229 231q-16 15 -47 50z" />
<glyph unicode="&#xd8;" horiz-adv-x="1337" d="M117 700q0 145 33.5 276.5t100 231t166 157.5t230.5 58q180 0 293 -71l76 133q72 -10 110 -60l-86 -157q180 -195 181 -588q0 -152 -36 -281t-105.5 -223t-173 -147.5t-238.5 -53.5q-160 0 -273 72l-73 -133q-72 8 -111 61l86 154q-180 198 -180 571zM375 272l497 957 q-84 63 -200 63q-111 0 -186.5 -48t-121 -132t-64.5 -196.5t-19 -239.5q0 -248 94 -404zM1055 700q0 270 -92 424l-500 -954q84 -63 190 -64q119 0 197 50.5t123 133.5t63.5 190t18.5 220z" />
<glyph unicode="&#xd9;" horiz-adv-x="1363" d="M1180 1399v-922q0 -123 -36 -216t-100.5 -156.5t-156.5 -96.5t-205 -33t-205 33t-156.5 96.5t-99.5 156.5t-35 216v916l13 12h61q49 0 65.5 -23.5t16.5 -78.5v-824q0 -180 89 -277.5t251 -97.5t251 95.5t89 279.5v920q31 6 78 6q45 0 80 -6zM501 1806l391 -227 q-12 -61 -49 -86l-419 176q14 98 77 137z" />
<glyph unicode="&#xda;" horiz-adv-x="1363" d="M1180 1399v-922q0 -123 -36 -216t-100.5 -156.5t-156.5 -96.5t-205 -33t-205 33t-156.5 96.5t-99.5 156.5t-35 216v916l13 12h61q49 0 65.5 -23.5t16.5 -78.5v-824q0 -180 89 -277.5t251 -97.5t251 95.5t89 279.5v920q31 6 78 6q45 0 80 -6zM501 1579l391 227 q59 -37 78 -137l-420 -176q-41 29 -49 86z" />
<glyph unicode="&#xdb;" horiz-adv-x="1363" d="M1180 1399v-922q0 -123 -36 -216t-100.5 -156.5t-156.5 -96.5t-205 -33t-205 33t-156.5 96.5t-99.5 156.5t-35 216v916l13 12h61q49 0 65.5 -23.5t16.5 -78.5v-824q0 -180 89 -277.5t251 -97.5t251 95.5t89 279.5v920q31 6 78 6q45 0 80 -6zM905 1511l-223 154l-232 -166 q-57 25 -70 74l228 221q72 12 145 0l228 -211q-19 -56 -76 -72z" />
<glyph unicode="&#xdc;" horiz-adv-x="1363" d="M1180 1399v-922q0 -123 -36 -216t-100.5 -156.5t-156.5 -96.5t-205 -33t-205 33t-156.5 96.5t-99.5 156.5t-35 216v916l13 12h61q49 0 65.5 -23.5t16.5 -78.5v-824q0 -180 89 -277.5t251 -97.5t251 95.5t89 279.5v920q31 6 78 6q45 0 80 -6zM800 1675q12 8 35 12.5 t47 4.5q51 0 88 -17q12 -41 13 -76q0 -18 -1 -34.5t-9.5 -28.5t-30 -19.5t-60.5 -7.5t-58.5 8.5t-28.5 20.5t-10 28.5t-1 32.5q0 43 16 76zM393 1675q16 8 39.5 12.5t48.5 4.5q35 0 54.5 -7.5t28.5 -19.5t11 -29.5t2 -36.5v-32.5t-9 -28.5t-29.5 -20.5t-59.5 -8.5 q-41 0 -60.5 8.5t-29 20.5t-9.5 28.5v32.5q1 33 13 76z" />
<glyph unicode="&#xdd;" horiz-adv-x="985" d="M594 862l213 537q16 4 33.5 6t36.5 2q35 0 75 -10l6 -13l-385 -929v-455q-35 -6 -79 -6q-47 0 -78 6v461l-385 919q25 14 49 23.5t47 9.5q29 0 52.5 -17.5t39.5 -58.5l197 -475q14 -35 35.5 -92t48.5 -143h10q4 18 25.5 76.5t58.5 158.5zM319 1579l391 227 q59 -37 78 -137l-420 -176q-41 29 -49 86z" />
<glyph unicode="&#xde;" horiz-adv-x="1146" d="M203 0v1399q31 6 78 6t77 -6v-217q78 2 138.5 3t105.5 1q100 0 184 -29t143.5 -85t92.5 -138t33 -186t-33 -186.5t-92.5 -138.5t-142 -86t-185.5 -30h-244v-307q-31 -6 -77 -6q-47 0 -78 6zM358 438l248 2q78 0 132.5 26t87 67.5t47 98t14.5 122.5q0 57 -14.5 111.5 t-48 96.5t-88 66.5t-134.5 24.5h-139.5t-104.5 2v-617z" />
<glyph unicode="&#xdf;" horiz-adv-x="1251" d="M225 0v834l-176 -3q-6 31 -6 66t6 66l176 -5v86q0 92 31 164t86 121t133 75t174 26q94 0 172 -29t132.5 -81t84 -125t29.5 -163q0 -74 -31 -160h-4l4 -2q-92 -23 -139 -68.5t-47 -94.5q0 -29 20.5 -65t71.5 -77l76 -61q78 -63 115.5 -130t37.5 -124q0 -59 -25.5 -109.5 t-71.5 -87.5t-109.5 -57.5t-137.5 -20.5q-147 0 -262 60q2 27 19.5 60.5t42.5 51.5q47 -27 93 -38t89 -11q86 0 143.5 38t57.5 100q-2 35 -22.5 76.5t-72.5 84.5l-84 70q-139 115 -139 225q0 80 56.5 144.5t154.5 99.5q12 43 12 84q0 129 -68.5 211t-203.5 82 q-131 0 -197.5 -75t-66.5 -210v-1028q-35 -6 -78 -6q-45 0 -76 6z" />
<glyph unicode="&#xe0;" horiz-adv-x="1032" d="M918 63q-23 -57 -70 -77q-100 37 -127 143q-158 -154 -309 -154q-78 0 -135.5 25t-95.5 65.5t-57.5 94t-19.5 112.5q0 82 28 144.5t76 103.5t113.5 61.5t141.5 20.5q154 0 250 -18v102q0 209 -185 209q-141 0 -333 -84q-53 47 -54 119q221 96 402 96q317 0 317 -342v-422 q-2 -74 13.5 -122t44.5 -77zM713 268v205q-49 8 -102.5 11t-112.5 3q-117 0 -178.5 -54t-61.5 -142q0 -86 43 -136.5t117 -50.5q76 0 155 42t140 122zM362 1479l281 -316q-23 -53 -72 -65l-334 266q37 88 125 115z" />
<glyph unicode="&#xe1;" horiz-adv-x="1032" d="M918 63q-23 -57 -70 -77q-100 37 -127 143q-158 -154 -309 -154q-78 0 -135.5 25t-95.5 65.5t-57.5 94t-19.5 112.5q0 82 28 144.5t76 103.5t113.5 61.5t141.5 20.5q154 0 250 -18v102q0 209 -185 209q-141 0 -333 -84q-53 47 -54 119q221 96 402 96q317 0 317 -342v-422 q-2 -74 13.5 -122t44.5 -77zM713 268v205q-49 8 -102.5 11t-112.5 3q-117 0 -178.5 -54t-61.5 -142q0 -86 43 -136.5t117 -50.5q76 0 155 42t140 122zM364 1163l281 316q88 -27 125 -115l-334 -266q-49 12 -72 65z" />
<glyph unicode="&#xe2;" horiz-adv-x="1032" d="M918 63q-23 -57 -70 -77q-100 37 -127 143q-158 -154 -309 -154q-78 0 -135.5 25t-95.5 65.5t-57.5 94t-19.5 112.5q0 82 28 144.5t76 103.5t113.5 61.5t141.5 20.5q154 0 250 -18v102q0 209 -185 209q-141 0 -333 -84q-53 47 -54 119q221 96 402 96q317 0 317 -342v-422 q-2 -74 13.5 -122t44.5 -77zM713 268v205q-49 8 -102.5 11t-112.5 3q-117 0 -178.5 -54t-61.5 -142q0 -86 43 -136.5t117 -50.5q76 0 155 42t140 122zM688 1112l-194 193l-207 -203q-49 20 -74 72l217 270q51 14 133 2l207 -260q-27 -54 -82 -74z" />
<glyph unicode="&#xe3;" horiz-adv-x="1032" d="M918 63q-23 -57 -70 -77q-100 37 -127 143q-158 -154 -309 -154q-78 0 -135.5 25t-95.5 65.5t-57.5 94t-19.5 112.5q0 82 28 144.5t76 103.5t113.5 61.5t141.5 20.5q154 0 250 -18v102q0 209 -185 209q-141 0 -333 -84q-53 47 -54 119q221 96 402 96q317 0 317 -342v-422 q-2 -74 13.5 -122t44.5 -77zM713 268v205q-49 8 -102.5 11t-112.5 3q-117 0 -178.5 -54t-61.5 -142q0 -86 43 -136.5t117 -50.5q76 0 155 42t140 122zM528 1169l-125 62q-37 18 -67 18q-23 0 -42.5 -12t-43.5 -41l-27 -33q-63 4 -78 49l19 41q59 133 184 133q49 0 111 -28 l125 -60q16 -8 32.5 -13t32.5 -5q41 -2 88 53l27 31q55 -2 78 -49l-19 -41q-61 -133 -184 -133q-50 -1 -111 28z" />
<glyph unicode="&#xe4;" horiz-adv-x="1032" d="M918 63q-23 -57 -70 -77q-100 37 -127 143q-158 -154 -309 -154q-78 0 -135.5 25t-95.5 65.5t-57.5 94t-19.5 112.5q0 82 28 144.5t76 103.5t113.5 61.5t141.5 20.5q154 0 250 -18v102q0 209 -185 209q-141 0 -333 -84q-53 47 -54 119q221 96 402 96q317 0 317 -342v-422 q-2 -74 13.5 -122t44.5 -77zM713 268v205q-49 8 -102.5 11t-112.5 3q-117 0 -178.5 -54t-61.5 -142q0 -86 43 -136.5t117 -50.5q76 0 155 42t140 122zM594 1311q31 18 82 18q63 0 78.5 -25.5t15.5 -64.5q0 -41 -16.5 -63.5t-77.5 -22.5q-35 0 -54.5 7t-28.5 19.5t-11 28 t-2 33.5q0 35 14 70zM231 1311q14 10 36 14t44 4q47 0 82 -18q6 -18 10.5 -37t4.5 -35q0 -43 -17.5 -64.5t-79.5 -21.5q-35 0 -53 7t-27.5 19.5t-11.5 29t-2 32.5q0 35 14 70z" />
<glyph unicode="&#xe5;" horiz-adv-x="1032" d="M918 63q-23 -57 -70 -77q-100 37 -127 143q-158 -154 -309 -154q-78 0 -135.5 25t-95.5 65.5t-57.5 94t-19.5 112.5q0 82 28 144.5t76 103.5t113.5 61.5t141.5 20.5q154 0 250 -18v102q0 209 -185 209q-141 0 -333 -84q-53 47 -54 119q221 96 402 96q317 0 317 -342v-422 q-2 -74 13.5 -122t44.5 -77zM713 268v205q-49 8 -102.5 11t-112.5 3q-117 0 -178.5 -54t-61.5 -142q0 -86 43 -136.5t117 -50.5q76 0 155 42t140 122zM494 1098q-49 0 -90.5 17.5t-71 46t-47 68.5t-17.5 83q0 92 63.5 154.5t162.5 62.5q98 0 161.5 -62.5t63.5 -154.5 q0 -43 -17.5 -83t-47 -68.5t-70.5 -46t-90 -17.5zM494 1430q-45 0 -75 -33t-30 -84q0 -49 29.5 -82t75.5 -33q45 0 74.5 33t29.5 82q0 51 -29.5 84t-74.5 33z" />
<glyph unicode="&#xe6;" horiz-adv-x="1630" d="M1503 457h-635q10 -348 262 -348q141 0 297 88q45 -39 56 -107q-164 -115 -371 -115q-236 0 -334 189q-68 -80 -166 -134.5t-227 -54.5q-63 0 -115.5 24t-89.5 64.5t-56.5 95t-19.5 115.5q0 166 101.5 247t281.5 81q111 0 226 -20v106q0 207 -185 207q-141 0 -333 -84 q-53 47 -54 119q221 96 410 96q193 0 266 -149q113 154 301 153q94 0 167 -32.5t123 -91t76.5 -139.5t26.5 -175q0 -35 -2 -68.5t-6 -66.5zM735 285q-18 80 -24 184q-104 18 -217 18q-111 0 -173.5 -53t-62.5 -141q0 -86 43 -137.5t121 -51.5q80 0 166 44.5t147 136.5z M868 573h488v23q0 141 -58.5 229t-177.5 88q-117 0 -180.5 -90t-71.5 -250z" />
<glyph unicode="&#xe7;" horiz-adv-x="960" d="M408 -147q18 68 43 127q-90 10 -155 54t-107 113.5t-62.5 157.5t-20.5 189q0 131 32 231t88.5 168t132 102.5t161.5 34.5q88 0 153.5 -27.5t109.5 -70.5t66.5 -94.5t22.5 -96.5q0 -98 -79 -98q-29 0 -66 6v23q0 45 -12.5 88t-38 75.5t-65.5 52t-95 19.5 q-117 0 -184.5 -106.5t-67.5 -302.5q0 -197 66.5 -294.5t181.5 -97.5q121 0 276 113q55 -33 72 -96q-127 -121 -293 -143q-8 -14 -14 -30l-12 -32q80 -6 130 -53t50 -127q0 -82 -64.5 -134.5t-158.5 -52.5q-96 0 -154 39q4 49 39 91q45 -29 104 -29q100 0 101 90 q0 88 -99 88q-23 0 -49 -10q-22 8 -32 33z" />
<glyph unicode="&#xe8;" horiz-adv-x="1030" d="M901 457h-635q10 -348 264 -348q139 0 297 86q45 -41 56 -105q-168 -115 -377 -115q-106 0 -182 40t-124 111t-71 167t-23 211q0 117 28 213t81 165.5t128 108.5t171 39q94 0 169 -33.5t125 -92t76.5 -139.5t26.5 -173q0 -37 -3 -70.5t-7 -64.5zM266 573h492v27 q0 141 -59.5 227t-178.5 86q-117 0 -181.5 -92t-72.5 -248zM391 1479l281 -316q-23 -53 -72 -65l-334 266q37 88 125 115z" />
<glyph unicode="&#xe9;" horiz-adv-x="1030" d="M901 457h-635q10 -348 264 -348q139 0 297 86q45 -41 56 -105q-168 -115 -377 -115q-106 0 -182 40t-124 111t-71 167t-23 211q0 117 28 213t81 165.5t128 108.5t171 39q94 0 169 -33.5t125 -92t76.5 -139.5t26.5 -173q0 -37 -3 -70.5t-7 -64.5zM266 573h492v27 q0 141 -59.5 227t-178.5 86q-117 0 -181.5 -92t-72.5 -248zM387 1163l281 316q88 -27 125 -115l-334 -266q-49 12 -72 65z" />
<glyph unicode="&#xea;" horiz-adv-x="1030" d="M901 457h-635q10 -348 264 -348q139 0 297 86q45 -41 56 -105q-168 -115 -377 -115q-106 0 -182 40t-124 111t-71 167t-23 211q0 117 28 213t81 165.5t128 108.5t171 39q94 0 169 -33.5t125 -92t76.5 -139.5t26.5 -173q0 -37 -3 -70.5t-7 -64.5zM266 573h492v27 q0 141 -59.5 227t-178.5 86q-117 0 -181.5 -92t-72.5 -248zM717 1112l-194 193l-207 -203q-49 20 -74 72l217 270q51 14 133 2l207 -260q-27 -54 -82 -74z" />
<glyph unicode="&#xeb;" horiz-adv-x="1030" d="M901 457h-635q10 -348 264 -348q139 0 297 86q45 -41 56 -105q-168 -115 -377 -115q-106 0 -182 40t-124 111t-71 167t-23 211q0 117 28 213t81 165.5t128 108.5t171 39q94 0 169 -33.5t125 -92t76.5 -139.5t26.5 -173q0 -37 -3 -70.5t-7 -64.5zM266 573h492v27 q0 141 -59.5 227t-178.5 86q-117 0 -181.5 -92t-72.5 -248zM623 1311q31 18 82 18q63 0 78.5 -25.5t15.5 -64.5q0 -41 -16.5 -63.5t-77.5 -22.5q-35 0 -54.5 7t-28.5 19.5t-11 28t-2 33.5q0 35 14 70zM260 1311q14 10 36 14t44 4q47 0 82 -18q6 -18 10.5 -37t4.5 -35 q0 -43 -17.5 -64.5t-79.5 -21.5q-35 0 -53 7t-27.5 19.5t-11.5 29t-2 32.5q0 35 14 70z" />
<glyph unicode="&#xec;" horiz-adv-x="524" d="M348 864v-864q-31 -6 -76 -6t-75 6v791q0 57 -18.5 77.5t-65.5 20.5h-19q-8 23 -8 55q0 33 8 57q39 4 63.5 7.5t39.5 3.5h16q63 0 99 -40t36 -108zM106 1479l281 -316q-23 -53 -72 -65l-334 266q37 88 125 115z" />
<glyph unicode="&#xed;" horiz-adv-x="524" d="M348 864v-864q-31 -6 -76 -6t-75 6v791q0 57 -18.5 77.5t-65.5 20.5h-19q-8 23 -8 55q0 33 8 57q39 4 63.5 7.5t39.5 3.5h16q63 0 99 -40t36 -108zM104 1163l281 316q88 -27 125 -115l-334 -266q-49 12 -72 65z" />
<glyph unicode="&#xee;" horiz-adv-x="524" d="M348 864v-864q-31 -6 -76 -6t-75 6v791q0 57 -18.5 77.5t-65.5 20.5h-19q-8 23 -8 55q0 33 8 57q39 4 63.5 7.5t39.5 3.5h16q63 0 99 -40t36 -108zM434 1112l-194 193l-207 -203q-49 20 -74 72l217 270q51 14 133 2l207 -260q-27 -54 -82 -74z" />
<glyph unicode="&#xef;" horiz-adv-x="524" d="M348 864v-864q-31 -6 -76 -6t-75 6v791q0 57 -18.5 77.5t-65.5 20.5h-19q-8 23 -8 55q0 33 8 57q39 4 63.5 7.5t39.5 3.5h16q63 0 99 -40t36 -108zM338 1311q31 18 82 18q63 0 78.5 -25.5t15.5 -64.5q0 -41 -16.5 -63.5t-77.5 -22.5q-35 0 -54.5 7t-28.5 19.5t-11 28 t-2 33.5q0 35 14 70zM-25 1311q14 10 36 14t44 4q47 0 82 -18q6 -18 10.5 -37t4.5 -35q0 -43 -17.5 -64.5t-79.5 -21.5q-35 0 -53 7t-27.5 19.5t-11.5 29t-2 32.5q0 35 14 70z" />
<glyph unicode="&#xf0;" horiz-adv-x="1056" d="M260 1171l193 134q-82 70 -187 118q14 74 64 101q137 -63 235 -142l180 125q20 -14 41 -41.5t23 -50.5l-160 -110q303 -309 303 -809q0 -115 -27.5 -210.5t-82 -164t-133 -107.5t-183.5 -39q-102 0 -181 39t-133 107.5t-82 162t-28 203.5q0 109 29 202t82 162t132 107.5 t179 38.5q92 0 191 -47q-53 143 -178 277l-213 -148q-20 12 -41 40.5t-23 51.5zM760 799q-102 78 -238 78q-68 0 -118 -30t-81.5 -81t-47 -123t-15.5 -154t14.5 -153.5t47 -125.5t84 -85t122.5 -31q78 0 129.5 35t82 93.5t44 133t13.5 154.5q0 68 -9.5 141.5t-27.5 147.5z " />
<glyph unicode="&#xf1;" horiz-adv-x="1116" d="M948 702v-507q0 -117 23 -175q-33 -33 -97 -32q-78 0 -77 100v567q0 125 -31 177.5t-117 52.5q-82 0 -170 -44t-147 -114v-727q-31 -6 -76 -6t-76 6v999l13 13h57q49 0 65.5 -25.5t16.5 -81.5v-28q70 66 164 105.5t188 39.5q137 0 200.5 -88.5t63.5 -231.5zM602 1169 l-125 62q-37 18 -67 18q-23 0 -42.5 -12t-43.5 -41l-27 -33q-63 4 -78 49l19 41q59 133 184 133q49 0 111 -28l125 -60q16 -8 32.5 -13t32.5 -5q41 -2 88 53l27 31q55 -2 78 -49l-19 -41q-61 -133 -184 -133q-50 -1 -111 28z" />
<glyph unicode="&#xf2;" horiz-adv-x="1062" d="M813 84q-109 -109 -283 -109q-102 0 -181 39t-133 107.5t-82 166t-28 214.5t28 214t82 166.5t133 108.5t181 39t181.5 -39t133.5 -108.5t82.5 -167t28.5 -213.5q0 -275 -143 -418zM532 94q131 0 200 111.5t69 296.5q0 82 -15.5 156.5t-48 131t-84 89t-123.5 32.5 q-70 0 -120 -31.5t-82.5 -87t-48 -130t-15.5 -160.5t15.5 -160t47 -129t82.5 -87t123 -32zM399 1479l281 -316q-23 -53 -72 -65l-334 266q37 88 125 115z" />
<glyph unicode="&#xf3;" horiz-adv-x="1062" d="M813 84q-109 -109 -283 -109q-102 0 -181 39t-133 107.5t-82 166t-28 214.5t28 214t82 166.5t133 108.5t181 39t181.5 -39t133.5 -108.5t82.5 -167t28.5 -213.5q0 -275 -143 -418zM532 94q131 0 200 111.5t69 296.5q0 82 -15.5 156.5t-48 131t-84 89t-123.5 32.5 q-70 0 -120 -31.5t-82.5 -87t-48 -130t-15.5 -160.5t15.5 -160t47 -129t82.5 -87t123 -32zM397 1163l281 316q88 -27 125 -115l-334 -266q-49 12 -72 65z" />
<glyph unicode="&#xf4;" horiz-adv-x="1062" d="M813 84q-109 -109 -283 -109q-102 0 -181 39t-133 107.5t-82 166t-28 214.5t28 214t82 166.5t133 108.5t181 39t181.5 -39t133.5 -108.5t82.5 -167t28.5 -213.5q0 -275 -143 -418zM532 94q131 0 200 111.5t69 296.5q0 82 -15.5 156.5t-48 131t-84 89t-123.5 32.5 q-70 0 -120 -31.5t-82.5 -87t-48 -130t-15.5 -160.5t15.5 -160t47 -129t82.5 -87t123 -32zM725 1112l-194 193l-207 -203q-49 20 -74 72l217 270q51 14 133 2l207 -260q-27 -54 -82 -74z" />
<glyph unicode="&#xf5;" horiz-adv-x="1062" d="M813 84q-109 -109 -283 -109q-102 0 -181 39t-133 107.5t-82 166t-28 214.5t28 214t82 166.5t133 108.5t181 39t181.5 -39t133.5 -108.5t82.5 -167t28.5 -213.5q0 -275 -143 -418zM532 94q131 0 200 111.5t69 296.5q0 82 -15.5 156.5t-48 131t-84 89t-123.5 32.5 q-70 0 -120 -31.5t-82.5 -87t-48 -130t-15.5 -160.5t15.5 -160t47 -129t82.5 -87t123 -32zM565 1169l-125 62q-37 18 -67 18q-23 0 -42.5 -12t-43.5 -41l-27 -33q-63 4 -78 49l19 41q59 133 184 133q49 0 111 -28l125 -60q16 -8 32.5 -13t32.5 -5q41 -2 88 53l27 31 q55 -2 78 -49l-19 -41q-61 -133 -184 -133q-50 -1 -111 28z" />
<glyph unicode="&#xf6;" horiz-adv-x="1062" d="M813 84q-109 -109 -283 -109q-102 0 -181 39t-133 107.5t-82 166t-28 214.5t28 214t82 166.5t133 108.5t181 39t181.5 -39t133.5 -108.5t82.5 -167t28.5 -213.5q0 -275 -143 -418zM532 94q131 0 200 111.5t69 296.5q0 82 -15.5 156.5t-48 131t-84 89t-123.5 32.5 q-70 0 -120 -31.5t-82.5 -87t-48 -130t-15.5 -160.5t15.5 -160t47 -129t82.5 -87t123 -32zM631 1311q31 18 82 18q63 0 78.5 -25.5t15.5 -64.5q0 -41 -16.5 -63.5t-77.5 -22.5q-35 0 -54.5 7t-28.5 19.5t-11 28t-2 33.5q0 35 14 70zM268 1311q14 10 36 14t44 4q47 0 82 -18 q6 -18 10.5 -37t4.5 -35q0 -43 -17.5 -64.5t-79.5 -21.5q-35 0 -53 7t-27.5 19.5t-11.5 29t-2 32.5q0 35 14 70z" />
<glyph unicode="&#xf7;" d="M453 883q-16 33 -16.5 74.5t16.5 74.5q29 23 91 23t89 -23q14 -29 14 -75t-14 -74q-27 -23 -89 -23t-91 23zM453 154q-16 33 -16.5 74.5t16.5 74.5q29 23 91 23t89 -23q14 -29 14 -75t-14 -74q-23 -23 -87 -23t-93 23zM965 526h-844q-8 25 -8 68t8 74h844q8 -31 8 -74 t-8 -68z" />
<glyph unicode="&#xf8;" horiz-adv-x="1062" d="M815 915q141 -141 141 -415q0 -117 -28.5 -214.5t-82.5 -166t-133 -106.5t-182 -38q-113 0 -194 43l-74 -127q-27 2 -57.5 18.5t-44.5 37.5l82 145q-135 141 -136 412q0 117 29 214t82 165.5t132 107.5t181 39q106 0 191 -43l76 129q25 -2 55.5 -19.5t44.5 -37.5z M745 788l-348 -659q57 -37 135 -37q74 0 126.5 33t85 89t48 131t15.5 161q-1 173 -62 282zM313 223l346 658q-59 35 -127 34q-74 0 -126 -32.5t-85.5 -89t-49 -132t-15.5 -159.5q0 -173 57 -279z" />
<glyph unicode="&#xf9;" horiz-adv-x="1118" d="M170 301v510q0 109 -25 174q35 33 97 33q78 0 77 -100v-568q0 -129 33 -180t115 -51t170 44t147 113v728q12 4 33 6t43 2q23 0 42.5 -2t33.5 -6v-721q0 -164 57 -220q-18 -57 -69 -77q-100 33 -129 151q-70 -70 -167.5 -112.5t-195.5 -42.5q-137 0 -199.5 88t-62.5 231z M420 1479l281 -316q-23 -53 -72 -65l-334 266q37 88 125 115z" />
<glyph unicode="&#xfa;" horiz-adv-x="1118" d="M170 301v510q0 109 -25 174q35 33 97 33q78 0 77 -100v-568q0 -129 33 -180t115 -51t170 44t147 113v728q12 4 33 6t43 2q23 0 42.5 -2t33.5 -6v-721q0 -164 57 -220q-18 -57 -69 -77q-100 33 -129 151q-70 -70 -167.5 -112.5t-195.5 -42.5q-137 0 -199.5 88t-62.5 231z M417 1163l281 316q88 -27 125 -115l-334 -266q-49 12 -72 65z" />
<glyph unicode="&#xfb;" horiz-adv-x="1118" d="M170 301v510q0 109 -25 174q35 33 97 33q78 0 77 -100v-568q0 -129 33 -180t115 -51t170 44t147 113v728q12 4 33 6t43 2q23 0 42.5 -2t33.5 -6v-721q0 -164 57 -220q-18 -57 -69 -77q-100 33 -129 151q-70 -70 -167.5 -112.5t-195.5 -42.5q-137 0 -199.5 88t-62.5 231z M745 1112l-194 193l-207 -203q-49 20 -74 72l217 270q51 14 133 2l207 -260q-27 -54 -82 -74z" />
<glyph unicode="&#xfc;" horiz-adv-x="1118" d="M170 301v510q0 109 -25 174q35 33 97 33q78 0 77 -100v-568q0 -129 33 -180t115 -51t170 44t147 113v728q12 4 33 6t43 2q23 0 42.5 -2t33.5 -6v-721q0 -164 57 -220q-18 -57 -69 -77q-100 33 -129 151q-70 -70 -167.5 -112.5t-195.5 -42.5q-137 0 -199.5 88t-62.5 231z M649 1311q31 18 82 18q63 0 78.5 -25.5t15.5 -64.5q0 -41 -16.5 -63.5t-77.5 -22.5q-35 0 -54.5 7t-28.5 19.5t-11 28t-2 33.5q0 35 14 70zM286 1311q14 10 36 14t44 4q47 0 82 -18q6 -18 10.5 -37t4.5 -35q0 -43 -17.5 -64.5t-79.5 -21.5q-35 0 -53 7t-27.5 19.5t-11.5 29 t-2 32.5q0 35 14 70z" />
<glyph unicode="&#xfd;" horiz-adv-x="925" d="M893 995l-281 -960q-78 -264 -166 -372.5t-264 -108.5q-90 0 -166 26q-6 57 33 111q63 -23 135 -23q109 0 166.5 74t104.5 229l6 21q-53 4 -81 24.5t-46 75.5l-287 901q63 27 90 27q59 0 80 -72l162 -514q8 -25 94 -319q4 -14 21 -15l249 906q27 8 71 8t75 -13zM327 1163 l281 316q88 -27 125 -115l-334 -266q-49 12 -72 65z" />
<glyph unicode="&#xfe;" horiz-adv-x="1075" d="M328 68v-406q0 -55 -16.5 -78.5t-65.5 -23.5h-53l-13 12v1921l13 12h53q49 0 65.5 -23.5t16.5 -78.5v-518q123 137 293 137q172 0 261 -138.5t89 -385.5q0 -121 -32 -217.5t-84 -162t-119.5 -100t-139.5 -34.5q-141 0 -268 84zM328 725v-518q63 -47 122.5 -69.5 t112.5 -22.5q111 0 182.5 97t71.5 296q0 98 -17.5 170t-46 119t-66.5 69.5t-81 22.5q-82 0 -155.5 -44t-122.5 -120z" />
<glyph unicode="&#xff;" horiz-adv-x="925" d="M893 995l-281 -960q-78 -264 -166 -372.5t-264 -108.5q-90 0 -166 26q-6 57 33 111q63 -23 135 -23q109 0 166.5 74t104.5 229l6 21q-53 4 -81 24.5t-46 75.5l-287 901q63 27 90 27q59 0 80 -72l162 -514q8 -25 94 -319q4 -14 21 -15l249 906q27 8 71 8t75 -13zM561 1311 q31 18 82 18q63 0 78.5 -25.5t15.5 -64.5q0 -41 -16.5 -63.5t-77.5 -22.5q-35 0 -54.5 7t-28.5 19.5t-11 28t-2 33.5q0 35 14 70zM198 1311q14 10 36 14t44 4q47 0 82 -18q6 -18 10.5 -37t4.5 -35q0 -43 -17.5 -64.5t-79.5 -21.5q-35 0 -53 7t-27.5 19.5t-11.5 29t-2 32.5 q0 35 14 70z" />
<glyph unicode="&#x131;" horiz-adv-x="524" d="M348 864v-864q-31 -6 -76 -6t-75 6v791q0 57 -18.5 77.5t-65.5 20.5h-19q-8 23 -8 55q0 33 8 57q39 4 63.5 7.5t39.5 3.5h16q63 0 99 -40t36 -108z" />
<glyph unicode="&#x152;" horiz-adv-x="1812" d="M1016 211l-2 -78q70 4 127 4h561q0 -43 -6 -65q-12 -72 -101 -72h-675q-215 -25 -250 -25q-203 0 -336 119q-217 195 -217 606q0 182 53 344t164 261q133 119 336 118q29 0 250 -24h747q4 -25 4 -65t-10 -70h-647l2 -127v-363l123 2h424q6 -37 6 -68.5t-6 -66.5h-424 q-78 0 -123 2v-432zM864 127v1143q-113 18 -154.5 21t-89 -1t-114 -37.5t-108.5 -91t-68 -137.5q-47 -143 -47 -289q0 -145 17 -241.5t57 -188.5t120 -145.5t185 -53.5q104 1 202 21z" />
<glyph unicode="&#x153;" horiz-adv-x="1728" d="M1604 457h-637q10 -348 264 -348q139 0 297 86q45 -41 55 -105q-168 -115 -373 -115q-242 0 -333 203q-102 -203 -347 -203q-102 0 -181 39t-133 107.5t-82 166t-28 214.5t28 214t82 166.5t133 108.5t181 39q248 0 351 -213q102 213 336 213q94 0 169.5 -33.5t124 -92 t75 -138.5t26.5 -174q0 -35 -2 -68.5t-6 -66.5zM532 94q66 0 116 30t84 83t51.5 129t17.5 166q0 82 -15.5 156.5t-48 131t-84 89t-123.5 32.5q-70 0 -120 -31.5t-82.5 -87t-48 -130t-15.5 -160.5q0 -84 14.5 -158t47 -129t82.5 -88t124 -33zM967 573h489v23q0 141 -58.5 229 t-174.5 88q-117 0 -181.5 -90t-74.5 -250z" />
<glyph unicode="&#x178;" horiz-adv-x="985" d="M594 862l213 537q16 4 33.5 6t36.5 2q35 0 75 -10l6 -13l-385 -929v-455q-35 -6 -79 -6q-47 0 -78 6v461l-385 919q25 14 49 23.5t47 9.5q29 0 52.5 -17.5t39.5 -58.5l197 -475q14 -35 35.5 -92t48.5 -143h10q4 18 25.5 76.5t58.5 158.5zM618 1675q12 8 35 12.5t47 4.5 q51 0 88 -17q12 -41 13 -76q0 -18 -1 -34.5t-9.5 -28.5t-30 -19.5t-60.5 -7.5t-58.5 8.5t-28.5 20.5t-10 28.5t-1 32.5q0 43 16 76zM211 1675q16 8 39.5 12.5t48.5 4.5q35 0 54.5 -7.5t28.5 -19.5t11 -29.5t2 -36.5v-32.5t-9 -28.5t-29.5 -20.5t-59.5 -8.5q-41 0 -60.5 8.5 t-29 20.5t-9.5 28.5v32.5q1 33 13 76z" />
<glyph unicode="&#x2c6;" horiz-adv-x="815" d="M602 1112l-194 193l-207 -203q-49 20 -74 72l217 270q51 14 133 2l207 -260q-27 -54 -82 -74z" />
<glyph unicode="&#x2da;" horiz-adv-x="815" d="M408 1098q-49 0 -90.5 17.5t-71 46t-47 68.5t-17.5 83q0 92 63.5 154.5t162.5 62.5q98 0 161.5 -62.5t63.5 -154.5q0 -43 -17.5 -83t-47 -68.5t-70.5 -46t-90 -17.5zM408 1430q-45 0 -75 -33t-30 -84q0 -49 29.5 -82t75.5 -33q45 0 74.5 33t29.5 82q0 51 -29.5 84 t-74.5 33z" />
<glyph unicode="&#x2dc;" horiz-adv-x="815" d="M442 1169l-125 62q-37 18 -67 18q-23 0 -42.5 -12t-43.5 -41l-27 -33q-63 4 -78 49l19 41q59 133 184 133q49 0 111 -28l125 -60q16 -8 32.5 -13t32.5 -5q41 -2 88 53l27 31q55 -2 78 -49l-19 -41q-61 -133 -184 -133q-50 -1 -111 28z" />
<glyph unicode="&#x2000;" horiz-adv-x="903" />
<glyph unicode="&#x2001;" horiz-adv-x="1806" />
<glyph unicode="&#x2002;" horiz-adv-x="903" />
<glyph unicode="&#x2003;" horiz-adv-x="1806" />
<glyph unicode="&#x2004;" horiz-adv-x="602" />
<glyph unicode="&#x2005;" horiz-adv-x="451" />
<glyph unicode="&#x2006;" horiz-adv-x="301" />
<glyph unicode="&#x2007;" horiz-adv-x="301" />
<glyph unicode="&#x2008;" horiz-adv-x="225" />
<glyph unicode="&#x2009;" horiz-adv-x="361" />
<glyph unicode="&#x200a;" horiz-adv-x="100" />
<glyph unicode="&#x2010;" horiz-adv-x="686" d="M580 473h-471q-8 25 -8.5 68t8.5 73h471q6 -33 6 -73.5t-6 -67.5z" />
<glyph unicode="&#x2011;" horiz-adv-x="686" d="M580 473h-471q-8 25 -8.5 68t8.5 73h471q6 -33 6 -73.5t-6 -67.5z" />
<glyph unicode="&#x2012;" horiz-adv-x="686" d="M580 473h-471q-8 25 -8.5 68t8.5 73h471q6 -33 6 -73.5t-6 -67.5z" />
<glyph unicode="&#x2013;" horiz-adv-x="1058" d="M922 475h-785q-6 27 -6 62.5t6 70.5h785q8 -31 8 -69.5t-8 -63.5z" />
<glyph unicode="&#x2014;" horiz-adv-x="1615" d="M1448 475h-1280q-6 27 -6 62.5t6 70.5h1280q6 -35 6 -69.5t-6 -63.5z" />
<glyph unicode="&#x2018;" horiz-adv-x="421" d="M113 1077q-20 43 -21 140q0 94 58.5 180t168.5 133q23 -12 35.5 -34.5t12.5 -45.5q-123 -70 -127 -174q39 -4 60.5 -12.5t29.5 -21.5t9 -33.5t1 -47.5q0 -41 -9 -62.5t-25.5 -31.5t-40 -11t-54.5 -1q-69 -1 -98 22z" />
<glyph unicode="&#x2019;" horiz-adv-x="421" d="M309 1503q20 -39 21 -121q0 -238 -230 -331q-23 10 -34 33.5t-11 45.5q123 70 125 175q-37 4 -57.5 11t-29.5 20.5t-10 33t-1 47.5q0 41 8 62.5t23.5 32t39 12.5t54.5 2q73 0 102 -23z" />
<glyph unicode="&#x201a;" horiz-adv-x="423" d="M324 180q20 -43 20 -139q0 -94 -58.5 -180t-168.5 -133q-23 8 -35 31.5t-12 47.5q123 66 127 175q-41 4 -61.5 11t-29 21.5t-9.5 34t-1 47.5q0 43 11.5 64.5t30 31t42 10.5t47.5 1q64 0 97 -23z" />
<glyph unicode="&#x201c;" horiz-adv-x="772" d="M113 1077q-20 43 -21 140q0 94 58.5 180t168.5 133q23 -12 35.5 -34.5t12.5 -45.5q-123 -70 -127 -174q39 -4 60.5 -12.5t29.5 -21.5t9 -33.5t1 -47.5q0 -41 -9 -62.5t-25.5 -31.5t-40 -11t-54.5 -1q-69 -1 -98 22zM463 1077q-20 43 -21 140q0 94 58.5 180t169.5 133 q23 -12 35 -34.5t12 -45.5q-123 -70 -127 -174q39 -4 60.5 -12.5t29.5 -21.5t9 -33.5t1 -47.5q0 -41 -9 -62.5t-25.5 -31.5t-40 -11t-54.5 -1q-69 -1 -98 22z" />
<glyph unicode="&#x201d;" horiz-adv-x="772" d="M309 1503q20 -39 21 -121q0 -238 -230 -331q-23 10 -34 33.5t-11 45.5q123 70 125 175q-37 4 -57.5 11t-29.5 20.5t-10 33t-1 47.5q0 41 8 62.5t23.5 32t39 12.5t54.5 2q73 0 102 -23zM662 1503q20 -39 20 -121q0 -238 -229 -331q-23 10 -34 33.5t-11 45.5 q123 70 124 175q-37 4 -57 11t-29.5 20.5t-10.5 33t-1 47.5q0 41 8.5 62.5t23.5 32t38.5 12.5t54.5 2q74 0 103 -23z" />
<glyph unicode="&#x201e;" horiz-adv-x="774" d="M324 180q20 -43 20 -139q0 -94 -58.5 -180t-168.5 -133q-23 8 -35 31.5t-12 47.5q123 66 127 175q-41 4 -61.5 11t-29 21.5t-9.5 34t-1 47.5q0 43 11.5 64.5t30 31t42 10.5t47.5 1q64 0 97 -23zM676 180q20 -43 20 -139q0 -94 -58 -180t-169 -133q-23 8 -35 31.5 t-12 47.5q123 66 127 175q-41 4 -61.5 11t-28.5 21.5t-9 34t-1 47.5q0 43 11 64.5t29.5 31t42 10.5t48.5 1q63 0 96 -23z" />
<glyph unicode="&#x2022;" horiz-adv-x="897" d="M268 393q-27 53 -26.5 165t26.5 159q78 41 181 41q43 0 99 -13.5t81 -27.5q29 -45 28.5 -159t-28.5 -165q-20 -14 -77.5 -25.5t-102.5 -11.5q-111 0 -181 37z" />
<glyph unicode="&#x202f;" horiz-adv-x="361" />
<glyph unicode="&#x2039;" horiz-adv-x="659" d="M565 864l-301 -340l314 -352q-25 -59 -89 -84l-401 381q-18 53 0 106l389 373q63 -25 88 -84z" />
<glyph unicode="&#x203a;" horiz-adv-x="659" d="M92 172l303 340l-315 352q29 59 90 84l399 -381q8 -20 8.5 -53t-8.5 -53l-387 -373q-61 25 -90 84z" />
<glyph unicode="&#x2044;" horiz-adv-x="391" d="M-266 0l772 1399q25 10 76 10t75 -10l-770 -1399q-27 -10 -77.5 -10t-75.5 10z" />
<glyph unicode="&#x205f;" horiz-adv-x="451" />
<glyph unicode="&#x2074;" horiz-adv-x="860" d="M471 721v168h-328q-31 49 -30.5 78.5t30.5 91.5l244 512q31 4 70 -4t55 -27l-182 -395q-47 -98 -74 -135l2 -4q45 2 119 2h94v147q0 43 22.5 67.5t59.5 24.5h45l2 -4v-235h135q6 -23 6 -59t-12 -60h-129v-168q-18 -8 -61 -8t-68 8z" />
<glyph unicode="&#x20ac;" horiz-adv-x="1165" d="M1022 1092q-166 123 -320 122q-266 0 -319 -350h469q6 -33 6 -59.5t-6 -56.5h-479q-2 -27 -2 -87.5t2 -89.5h479q6 -33 6 -59.5t-6 -56.5h-467q55 -342 317 -342q154 0 320 123q57 -39 80 -105q-188 -156 -418 -156q-391 0 -459 480h-157q-6 31 -6.5 56.5t6.5 59.5h145 q-2 31 -2 89.5t2 87.5h-145q-6 31 -6.5 57t6.5 59h155q68 487 461 488q225 0 418 -158q-25 -67 -80 -102z" />
<glyph unicode="&#x25fc;" horiz-adv-x="1024" d="M0 1024h1024v-1024h-1024v1024z" />
<glyph horiz-adv-x="815" d="M227 1806l391 -227q-12 -61 -49 -86l-419 176q14 98 77 137z" />
<glyph horiz-adv-x="815" d="M227 1579l391 227q59 -37 78 -137l-420 -176q-41 29 -49 86z" />
<glyph horiz-adv-x="815" d="M631 1511l-223 154l-232 -166q-57 25 -70 74l228 221q72 12 145 0l228 -211q-19 -56 -76 -72z" />
<glyph horiz-adv-x="815" d="M526 1675q12 8 35 12.5t47 4.5q51 0 88 -17q12 -41 13 -76q0 -18 -1 -34.5t-9.5 -28.5t-30 -19.5t-60.5 -7.5t-58.5 8.5t-28.5 20.5t-10 28.5t-1 32.5q0 43 16 76zM119 1675q16 8 39.5 12.5t48.5 4.5q35 0 54.5 -7.5t28.5 -19.5t11 -29.5t2 -36.5v-32.5t-9 -28.5 t-29.5 -20.5t-59.5 -8.5q-41 0 -60.5 8.5t-29 20.5t-9.5 28.5v32.5q1 33 13 76z" />
<glyph horiz-adv-x="815" d="M442 1546l-125 60q-18 8 -34.5 13t-32.5 5q-20 -2 -43 -12t-45 -39l-25 -33q-55 4 -78 47l17 41q27 66 79 98.5t109 32.5q27 2 53.5 -6t55.5 -20l125 -60q16 -8 32.5 -13t32.5 -5q20 0 44 10t46 41l25 33q49 -2 78 -51l-17 -39q-29 -66 -77 -98.5t-109 -32.5 q-50 -1 -111 28z" />
</font>
</defs>
</svg>
